Форест Ґамп / Forrest Gump (1994) UHD Remux 4K 2160p HDR H.265 Ukr/Eng | Sub Ukr/Eng

Нові коментарі

Нова тема   Відповісти
Автор Повідомлення
seasky 
Частий відвідувач


З нами з: 28.02.19
Востаннє: 11.12.19
Повідомлень: 28

2019-08-26 02:19  
Форест Ґамп / Forrest Gump (1994) UHD Remux 4K 2160p HDR H.265 Ukr/Eng | Sub Ukr/Eng

Форест Ґамп / Forrest Gump (1994) UHD Remux 4K 2160p HDR H.265 Ukr/Eng | Sub Ukr/Eng


Жанр: драма, психологічний
Країна: США

Top 250 Rated Movies: # 12

Кінокомпанія: Paramount Pictures
Режисер: Роберт Земекіс
Актори: Том Генкс, Робін Райт, Гері Сініз, Майкелті Вільямсон, Саллі Філд, Ребекка Вільямс, Майкл Коннер Хемпфрі, Харольд Дж. Хертем, Джордж Келлі

Сюжет:
Головний герой - Форрест Гамп - людина з обмеженими розумовими здібностями, однак з великим та шляхетним серцем. Він розповідає історію свого життя, насиченого цікавими подіями. Незважаючи на розумові вади Форрест неймовірним чином стає видатним футболістом, героєм війни і успішним бізнесменом. Будучи доволі заможною людиною, він залишається все таким же добрим і відкритим чоловіком. Успіх чекає на нього у всьому, але є дівчина яку він кохає з самого дитинства, однак взаємність приходить дуже пізно ...
Нагороди та номінації

Оскар, 1995 рік

Переможець (6):

* Кращий фільм
* Краща чоловіча роль (Том Хенкс)
* Кращий режисер (Роберт Земекіс)
* Кращий адаптований сценарій
* Кращий монтаж
* Кращі візуальні ефекти

Номінації (7):

* Краща чоловіча роль другого плану (Гері Синіз)
* Краща робота оператора
* Кращі декорації
* Кращий звук
* Кращий монтаж звуку
* Кращий грим
* Кращий оригінальний саундтрек

Золотий глобус, 1995 рік

Переможець (3):

* Кращий фільм (драма)
* Краща чоловіча роль (драма) (Том Хенкс)
* Кращий режисер (Роберт Земекіс)

Номінації (4):

* Краща чоловіча роль другого плану (Гері Синіз)
* Краща жіноча роль другого плану (Робін Райт Пенн)
* Кращий сценарій
* Кращий саундтрек

Премія каналу «MTV», 1995 рік

Номінації (3):

* Прорив року (Майкелті Вільямсон)
* Кращий фільм
* Краща чоловіча роль (Том Хенкс)

Британська академія, 1995 рік

Переможець (1):

* Кращі візуальні ефекти

Номінації (7):

*Кращий фільм
* Краща чоловіча роль (Том Хенкс)
* Краща жіноча роль другого плану (Селлі Філд)
* Кращий адаптований сценарій
* Краща робота оператора
* Кращий монтаж
* Премія імені Девіда Ліна за досягнення в режисурі (Роберт Земекіс)
Тривалість: 02:22:00
Якість: UHD Remux
Відео:

кодек: H.265 (HEVC)
розмір кадру: 3840 х 2160
бітрейт: 66,3 Mб/с
бітова глибина: 10 біт
кольоровий простір: BT.2020 (HDR)
Увага! Перед завантаженням переконайтесь, що ваш пристрій відтворення (та/або ПЗ) підтримує H.265 (HEVC)

Аудіо # 1:
мова: українська
переклад: багатоголосий закадровий
кодек: 5.1
бітрейт: 448 кб/с

Аудіо # 2:
мова: англійська
переклад: оригінал
кодек: TrueHD з Dolby Atmos 7.1
бітрейт: 4271 кб/с

Аудіо # 3:
мова: англійська
переклад: оригінал
кодек: 5.1
бітрейт: 640 кб/с

Аудіо # 4:
мова: англійська
переклад: описова
кодек: 5.1
бітрейт: 640 кб/с

Аудіо # 5:
мова: англійська
переклад: коментарі режисера Роберта Земекіса
кодек: 2.0
бітрейт: 224 кб/с

Аудіо # 6:
мова: англійська
переклад: коментарі продюсера Венді Файнерман
кодек: 2.0
бітрейт: 224 кб/с

Субтитри # 1:
мова: українська
тип: програмні (м'які)
формат: *.srt

Субтитри # 2:
мова: англійська (Full)
тип: програмні (м'які)
формат: *.srt

Субтитри # 3:
мова: англійська (SDH)
тип: програмні (м'які)
формат: *.srt

Субтитри # 4:
мова: англійська (коментарі №1)
тип: програмні (м'які)
формат: *.srt

Субтитри # 5:
мова: англійська (коментарі №2)
тип: програмні (м'які)
формат: *.srt
Info
General
Unique ID : 205702907799375888128340481036154479838 (0x9AC0F060D9F2B89EE663223E68BEA4DE)
Complete name : F:\Forrest Gump (1994) UHD Remux 4K 2160p HDR 10-bit H.265 UkrEng.
Format :
Format version : Version 4
File size : 72.3 GiB
Duration : 2 h 22 min
Overall bit rate mode : Variable
Overall bit rate : 72.9 Mb/s
Movie name : Форрест Ґамп / Forrest Gump (1994) UHD Remux 4K 2160p HDR 10-bit H.265 Ukr|Eng
Encoded date : UTC 2019-08-25 17:47:30
Writing application : v36.0.0 ('Is That Jazz?') 64-bit
Writing library : libebml v1.3.9 + v1.5.2
Cover : Yes
Attachments : cover

Video
ID : 1
Format : HEVC
Format/Info : High Efficiency Video Coding
Format profile : Main [email protected]@High
HDR format : SMPTE ST 2086, HDR10 compatible
Codec ID : V_MPEGH/ISO/HEVC
Duration : 2 h 22 min
Bit rate : 66.3 Mb/s
Width : 3 840 pixels
Height : 2 160 pixels
Display aspect ratio : 16:9
Frame rate mode : Constant
Frame rate : 23.976 (24000/1001) FPS
Color space : YUV
Chroma subsampling : 4:2:0 (Type 2)
Bit depth : 10 bits
Bits/(Pixel*Frame) : 0.334
Stream size : 65.9 GiB (91%)
Title : Forrest Gump (1994) UHD Remux 4K 2160p HDR 10-bit H.265 Ukr|Eng
Language : English
Default : Yes
Forced : No
Color range : Limited
Color primaries : BT.2020
Transfer characteristics : PQ
Matrix coefficients : BT.2020 non-constant
Mastering display color primaries : Display P3
Mastering display luminance : min: 0.0001 cd/m2, max: 1000 cd/m2

Audio #1
ID : 2
Format : AC-3
Format/Info : Audio Coding 3
Commercial name : Dolby Digital
Codec ID : A_AC3
Duration : 2 h 19 min
Bit rate mode : Constant
Bit rate : 448 kb/s
Channel(s) : 6 channels
Channel layout : L R C LFE Ls Rs
Sampling rate : 48.0 kHz
Frame rate : 31.250 FPS (1536 SPF)
Bit depth : 16 bits
Compression mode : Lossy
Stream size : 448 MiB (1%)
Title : | MVO, Інтер |
Language : Ukrainian
Service kind : Complete Main
Default : No
Forced : No

Audio #2
ID : 3
Format : MLP FBA 16-ch
Format/Info : Meridian Lossless Packing FBA with 16-channel presentation
Commercial name : Dolby TrueHD with Dolby Atmos
Codec ID : A_TRUEHD
Duration : 2 h 22 min
Bit rate mode : Variable
Bit rate : 4 271 kb/s
Maximum bit rate : 7 926 kb/s
Channel(s) : 8 channels
Channel layout : L R C LFE Ls Rs Lb Rb
Sampling rate : 48.0 kHz
Frame rate : 1 200.000 FPS (40 SPF)
Compression mode : Lossless
Delay relative to video : 501 ms
Stream size : 4.24 GiB (6%)
Title : | Original |
Language : English
Default : No
Forced : No
Number of dynamic objects : 11
Bed channel count : 1 channel
Bed channel configuration : LFE

Audio #3
ID : 4
Format : AC-3
Format/Info : Audio Coding 3
Commercial name : Dolby Digital
Codec ID : A_AC3
Duration : 2 h 22 min
Bit rate mode : Constant
Bit rate : 640 kb/s
Channel(s) : 6 channels
Channel layout : L R C LFE Ls Rs
Sampling rate : 48.0 kHz
Frame rate : 31.250 FPS (1536 SPF)
Bit depth : 16 bits
Compression mode : Lossy
Delay relative to video : 501 ms
Stream size : 651 MiB (1%)
Title : | Original, Core |
Language : English
Service kind : Complete Main
Default : No
Forced : No

Audio #4
ID : 5
Format : AC-3
Format/Info : Audio Coding 3
Commercial name : Dolby Digital
Codec ID : A_AC3
Duration : 2 h 22 min
Bit rate mode : Constant
Bit rate : 640 kb/s
Channel(s) : 6 channels
Channel layout : L R C LFE Ls Rs
Sampling rate : 48.0 kHz
Frame rate : 31.250 FPS (1536 SPF)
Bit depth : 16 bits
Compression mode : Lossy
Delay relative to video : 501 ms
Stream size : 651 MiB (1%)
Title : | Audiodescription |
Language : English
Service kind : Complete Main
Default : No
Forced : No

Audio #5
ID : 6
Format : AC-3
Format/Info : Audio Coding 3
Commercial name : Dolby Digital
Codec ID : A_AC3
Duration : 2 h 22 min
Bit rate mode : Constant
Bit rate : 224 kb/s
Channel(s) : 2 channels
Channel layout : L R
Sampling rate : 48.0 kHz
Frame rate : 31.250 FPS (1536 SPF)
Bit depth : 16 bits
Compression mode : Lossy
Stream size : 228 MiB (0%)
Title : | Comm. Robert Zemeckis, S.S. & R.C. |
Language : English
Service kind : Complete Main
Default : No
Forced : No

Audio #6
ID : 7
Format : AC-3
Format/Info : Audio Coding 3
Commercial name : Dolby Digital
Codec ID : A_AC3
Duration : 2 h 22 min
Bit rate mode : Constant
Bit rate : 224 kb/s
Channel(s) : 2 channels
Channel layout : L R
Sampling rate : 48.0 kHz
Frame rate : 31.250 FPS (1536 SPF)
Bit depth : 16 bits
Compression mode : Lossy
Stream size : 228 MiB (0%)
Title : | Comm. Wendy Finerman |
Language : English
Service kind : Complete Main
Default : No
Forced : No

Text #1
ID : 8
Format : UTF-8
Codec ID : S_TEXT/UTF8
Codec ID/Info : UTF-8 Plain Text
Duration : 2 h 13 min
Bit rate : 76 b/s
Count of elements : 1333
Stream size : 74.4 KiB (0%)
Title : Full
Language : Ukrainian
Default : No
Forced : No

Text #2
ID : 9
Format : UTF-8
Codec ID : S_TEXT/UTF8
Codec ID/Info : UTF-8 Plain Text
Duration : 2 h 10 min
Bit rate : 63 b/s
Count of elements : 1542
Stream size : 60.9 KiB (0%)
Title : Full
Language : English
Default : No
Forced : No

Text #3
ID : 10
Format : UTF-8
Codec ID : S_TEXT/UTF8
Codec ID/Info : UTF-8 Plain Text
Duration : 2 h 11 min
Bit rate : 65 b/s
Count of elements : 1595
Stream size : 62.9 KiB (0%)
Title : SDH
Language : English
Default : No
Forced : No

Text #4
ID : 11
Format : UTF-8
Codec ID : S_TEXT/UTF8
Codec ID/Info : UTF-8 Plain Text
Duration : 2 h 17 min
Bit rate : 82 b/s
Count of elements : 1643
Stream size : 82.4 KiB (0%)
Title : Commentary №1
Language : English
Default : No
Forced : No

Text #5
ID : 12
Format : UTF-8
Codec ID : S_TEXT/UTF8
Codec ID/Info : UTF-8 Plain Text
Duration : 2 h 15 min
Bit rate : 41 b/s
Count of elements : 821
Stream size : 41.3 KiB (0%)
Title : Commentary №2
Language : English
Default : No
Forced : No

Menu
00:00:00.000 : en:I'm Forrest...Forrest Gump
00:06:43.570 : en:Mama
00:12:24.577 : en:Like Peas and Carrots
00:19:56.946 : en:Run Forrest Run!
00:31:13.705 : en:Private Gump
00:40:40.188 : en:Lieutenant Dan
00:44:18.114 : en:My Best Good Friend
00:56:34.474 : en:Wounded in the Buttocks
01:03:32.267 : en:You're My Girl
01:13:34.076 : en:National Celebrity
01:17:02.827 : en:Happy New Year
01:23:52.277 : en:Shrimp Boat Captain
01:34:59.944 : en:Bubba Gump
01:38:55.596 : en:Mamma's Trip to Heaven
01:43:52.893 : en:Jenny Comes Home
01:51:28.307 : en:A Little Run
01:58:54.711 : en:Forrest Meets Forrest
02:04:48.564 : en:Beloved Mother, Wife and Friend
02:15:25.200 : en:Credits
Скріншоти







Джерело: &
Особиста оцінка: 10 - без зайвих вагань рекомендую всім!


Золотий реліз (завантажене не впливає на рейтинг)
 Трекер:    Зареєстрований   

Завантажити / скачати фільм українською



відео для новачків



 Зареєстрований:   2019-08-26 02:19
 Розмір:   72.33 GB 
 Оцінка фільму:   10/10 (Голосів: 7)
 Війна завжди недалеко
   
Інші релізи
   Форрест Ґамп / Forrest Gump (1994) Remux 1080р 2xUkr/Eng | Sub Ukr/Eng kryk-v.ya.  2 / 0   33.03 GB   2018-10-03 16:10 
   Форрест Ґамп / Forrest Gump (1994) 1080р H.265 2xUkr/Eng | Sub Ukr/Eng ukr_anonymous  14 / 0   6.36 GB   2018-06-30 20:14 
   Форрест Ґамп / Forrest Gump (1994) AVC 2xUkr Patriot_ukr  8 / 0   2.73 GB   2017-02-24 21:12 
   Форрест Ґамп / Forrest Gump (1994) 720р 2xUkr/Eng | Sub Ukr/Eng kino.  6 / 0   9.09 GB   2015-11-10 18:20 
   Форрест Гамп / Forrest Gump (1994) 2xUkr/Eng Arsenfpu  28 / 0   2.32 GB   2015-11-08 17:16 
   Форрест Ґамп / Forrest Gump (1994) 1080р Ukr/Eng | Sub Ukr/Eng nazar_9527  13 / 0   15.31 GB   2014-01-10 16:46 
   Форрест Ґамп / Forrest Gump (1994) Ukr/Eng | Sub Ukr/Eng karvai0  2 / 1   2.56 GB   2013-11-26 22:10 
   Форрест Гамп / Forrest Gump (1994) LIONN  8 / 0   2.05 GB   2009-12-20 18:16 
Ваш часовий пояс: GMT + 2 Години

Нова тема   Відповісти