Шлях Дракона / Meng long guo jiang / The Way of the Dragon (1972) Remux 1080p 2xUkr/Chi | Sub Eng/Chi

Нові коментарі

Нова тема   Відповісти
Автор Повідомлення
MakRA 
VIP


З нами з: 10.11.18
Востаннє: 25.01.20
Повідомлень: 694

2019-08-26 00:29  
Шлях Дракона / Meng long guo jiang / The Way of the Dragon (1972) Remux 1080p 2xUkr/Chi | Sub Eng/Chi


Український постер:

Альтернативні постери:



Жанр: екшн, пригодницький, кримінальний
Країна: Гонконг



Кінокомпанія: Golden Harvest Films, Concord Productions, Golden Harvest Company
Режисер: Брюс Лі [Bruce Lee]
Актори: Брюс Лі [Bruce Lee], Нора Міао [Nora Miao], Чак Норріс [Chuck Norris], Роберт Волл [Robert Wall], Тоні Лю [Tony Liu], Маліза Лонго [Malisa Longo], Фу Чінг Чен [Fu Ching Chen], Чін Ті [Ti Chin]

Сюжет:
Танг приїжджає з Гонконгу в Рим, щоб допомогти друзям сім'ї, чий ресторан задумали відібрати місцеві мафіозі. Звиклі завжди одержувати те, що захочуть і не зупинятися ні перед чим, бандити зробили велику помилку, недооцінивши з вигляду скромну молоду людину. Не зумівши впоратися з ним своїми силами, мафіозі наймають найкращих європейських і японських майстрів бойових мистецтв, але Танг з легкістю перемагає всіх. І тоді проти нього на арену стародавнього Колізею виходить «крутий і смертоносний» американець Кольт.

Цікаві факти:

-В американському прокаті фільм був названий «Повернення дракона» для того, щоб розвинути успіх іншого фільму з Брюсом Лі «Вихід Дракона» (1973), який вийшов в прокат трохи раніше.
-У фільмі використовується не тільки оригінальна музика, а й музика Енніо Морріконе, написана для вестерну Серджіо Леоне.
-Фільм знімався без звуку. Весь саундтрек був створений при монтажі.
-Фільм знімався в римському Колізеї.

-"Шлях дракона" - це перша режисерська робота знаменитого актора і майстра східних єдиноборств Брюса Лі. У цьому фільмі, який поєднує в собі одразу кілька жанрів, Брюс Лі також зіграв головну роль.

-По суті, головна особливість стрічки "Шлях дракона" - це зовсім не сюжетна лінія, де сміливий гонконгський хлопець протистоїть цілому угрупованню італійської мафії. Це в першу чергу - фільм про бойові мистецтва. Глядача чекає велика кількість вже ставшими легендарними боїв між Брюсом Лі і Чаком Норісом. Це класика 70-х з мінімальною кількістю спецефектів і максимальною кількістю бойових сцен.




Тривалість: 01:38:41
Якість: Remux 1080p [GER Transfer]
Відео:
кодек:
розмір кадру: 1920 х 1080
бітрейт: 20 Мб/с

Аудіо # 1:
мова: українська
переклад: багатоголосий закадровий
кодек: 5.1
бітрейт: 384 кб/с
примітка: озвучка на фоні китайської мови.
Про озвучення:
Ролі озвучили:Анатолій Зіновенко, ще один чоловічий (часто по стб озвучує), і Людмила Ардельян.
Аудіо # 2:
мова: українська
переклад: багатоголосий закадровий
кодек: 2.0
бітрейт: 192 кб/с
примітка: озвучка на фоні китайської мови.
Про озвучення:
Ролі озвучили:Дмитро Гаврилов, Дмитро Терещук, Анатолій Пашнін і один жіночий.
Аудіо # 3:
мова: китайська (кантонська)
переклад: оригінал
кодек: -HD MA 7.1
бітрейт: 2635 кб/с

Субтитри # 1: (Full)
мова: англійська
тип: пререндерні
формат: *.pgs

Субтитри # 2: (Full)
мова: китайська (кантонська)
тип: пререндерні
формат: *.pgs
Info
General
Unique ID : 219434801803587122867684921974140013902 (0xA5159B06344F6B16C734DF263A658D4E)
Complete name : F:\+Фільмографії-Брюс Лі [Bruce Lee]\Meng long guo jiang (The Way of the Dragon) (1972) Remux 1080p 2xUkrChi Sub EngChi [Hurtom].
Format :
Format version : Version 4
File size : 16.0 GiB
Duration : 1 h 38 min
Overall bit rate mode : Variable
Overall bit rate : 23.2 Mb/s
Movie name : Шлях Дракона / Meng long guo jiang / The Way of the Dragon (1972) Remux 1080p 2xUkr/Chi | Sub Eng/Chi [Hurtom]
Encoded date : UTC 2019-08-25 21:47:05
Writing application : v25.0.0 ('Prog Noir') 64-bit
Writing library : libebml v1.3.6 + v1.4.9

Video
ID : 1
Format : AVC
Format/Info : Advanced Video Codec
Format profile : [email protected]
Format settings : CABAC / 4 Ref Frames
Format settings, CABAC : Yes
Format settings, Reference fra : 4 frames
Format settings, GOP : M=3, N=24
Codec ID : V_MPEG4/ISO/AVC
Duration : 1 h 38 min
Bit rate mode : Variable
Bit rate : 20.0 Mb/s
Maximum bit rate : 25.0 Mb/s
Width : 1 920 pixels
Height : 1 080 pixels
Display aspect ratio : 16:9
Frame rate mode : Constant
Frame rate : 23.976 (24000/1001) FPS
Standard : NTSC
Color space : YUV
Chroma subsampling : 4:2:0
Bit depth : 8 bits
Scan type : Progressive
Bits/(Pixel*Frame) : 0.402
Stream size : 13.8 GiB (86%)
Title : Meng long guo jiang / The Way of the Dragon (1972) Remux 1080p 2xUkr/Chi | Sub Eng/Chi [Hurtom]
Language : Ukrainian
Default : Yes
Forced : Yes
Color range : Limited
Color primaries : BT.709
Transfer characteristics : BT.709
Matrix coefficients : BT.709

Audio #1
ID : 2
Format : AC-3
Format/Info : Audio Coding 3
Commercial name : Dolby Digital
Codec ID : A_AC3
Duration : 1 h 38 min
Bit rate mode : Constant
Bit rate : 384 kb/s
Channel(s) : 6 channels
Channel layout : L R C LFE Ls Rs
Sampling rate : 48.0 kHz
Frame rate : 31.250 FPS (1536 SPF)
Bit depth : 16 bits
Compression mode : Lossy
Stream size : 271 MiB (2%)
Title : MVO 5.1
Language : Ukrainian
Service kind : Complete Main
Default : Yes
Forced : Yes

Audio #2
ID : 3
Format : AC-3
Format/Info : Audio Coding 3
Commercial name : Dolby Digital
Codec ID : A_AC3
Duration : 1 h 38 min
Bit rate mode : Constant
Bit rate : 192 kb/s
Channel(s) : 2 channels
Channel layout : L R
Sampling rate : 48.0 kHz
Frame rate : 31.250 FPS (1536 SPF)
Bit depth : 16 bits
Compression mode : Lossy
Stream size : 136 MiB (1%)
Title : MVO [НТН] 2.0
Language : Ukrainian
Service kind : Complete Main
Default : No
Forced : No

Audio #3
ID : 4
Format : XLL
Format/Info : Digital Theater Systems
Commercial name : -HD Master Audio
Codec ID : A_DTS
Duration : 1 h 38 min
Bit rate mode : Variable
Bit rate : 2 637 kb/s
Channel(s) : 8 channels
Channel layout : C L R LFE Lb Rb Lss Rss
Sampling rate : 48.0 kHz
Frame rate : 93.750 FPS (512 SPF)
Bit depth : 16 bits
Compression mode : Lossless
Stream size : 1.82 GiB (11%)
Title : Original -HD MA 5.1
Language : Chinese
Default : No
Forced : No

Text #1
ID : 5
Format : PGS
Muxing mode : zlib
Codec ID : S_HDMV/PGS
Codec ID/Info : Picture based subtitle format used on BDs/HD-DVDs
Duration : 1 h 34 min
Bit rate : 17.5 kb/s
Count of elements : 1194
Stream size : 11.9 MiB (0%)
Title : Eng (Full)
Language : English
Default : No
Forced : No

Text #2
ID : 6
Format : PGS
Muxing mode : zlib
Codec ID : S_HDMV/PGS
Codec ID/Info : Picture based subtitle format used on BDs/HD-DVDs
Duration : 1 h 34 min
Bit rate : 22.5 kb/s
Count of elements : 1194
Stream size : 15.3 MiB (0%)
Title : Chi (Full)
Language : Chinese
Default : No
Forced : No
Скріншоти
Джерело: &
Дякую п. wrongfunction за українську доріжку #1, п. Zet95 (запис з ТБ) заукраїнську доріжку #2 , п. patriot2305 - зведення, п. Musketeer за постер українською.
Особиста оцінка: 10 - без зайвих вагань рекомендую всім!


Золотий реліз (завантажене не впливає на рейтинг)
 Трекер:    Зареєстрований   

Завантажити / скачати фільм українською



відео для новачків



 Зареєстрований:   2019-08-26 00:29
 Розмір:   16.01 GB 
 Оцінка фільму:   10/10 (Голосів: 10)
   
Oleksa9 
VIP


З нами з: 17.05.12
Востаннє: 25.01.20
Повідомлень: 397

2019-10-12 19:05  
щьоб -> аби
вибачяється -> перепрошує
Чяю, щьось, нічього, чясом, чяс, щє, чюв, щьо, захищятимуться, бачіш, чьорти, чьому, якщьо, шматочькі, навіщьо, хочю, хочєш, чюдово, захочють, пригощяйся, кращє, побачімо, перечєкати, личько, кращє, чєрез, означяє, бачів

Ваш часовий пояс: GMT + 2 Години

Нова тема   Відповісти