Шалений кулак (Кулак люті, Fist of Fury) / Jing wu men (1972) Remux 1080p 3xUkr/Chi | Sub Eng

Нові коментарі

Нова тема   Відповісти
Автор Повідомлення
MakRA 
VIP


З нами з: 10.11.18
Востаннє: 14.11.19
Повідомлень: 502

2019-08-25 22:00  
Шалений кулак / Кулак люті / Fist of Fury / Jing wu men (1972) Remux 1080p 3xUkr/Chi | Sub Eng

Шалений кулак (Кулак люті, Fist of Fury) / Jing wu men (1972) Remux 1080p 3xUkr/Chi | Sub Eng

Український постер:

Альтернативні постери:



Жанр: екшн, драма, романтичний
Країна: Гонконг



Кінокомпанія: Golden Harvest Company
Режисер: Ло Вей [Wei Lo]
Актори: Брюс Лі [Bruce Lee], Нора Міао [Nora Miao], Джеймс Тієн [James Tien], Марія Йі [Maria Yi], Роберт Бейкер [Robert Baker], Фу Чінг Чен [Fu Ching Chen], Сань Чинь [Shan Chin], Інь-Чіе Хань [ Ying-Chieh Han], Чикара Хасімото [Chikara Hashimoto], Дзюн Кацумура [Jun Katsumura]

Сюжет:
Культовий гонкогський бойовик з елементами історичної драми та неперевершеним Брюсом Лі в головній ролі.
Події розгортаються, у 1900-і роки, в окупованому імператорською Японією Шанхаї. Японці активно претендують на панування в Азії, а в древньому місті між китайцями та надмінними окупантами починають загострюватися відносини.
У центрі фільму - конфлікт між двома школами східних бойових мистецтв. Молодий боєць Чень дізнається про несподівану смерть свого вчителя - нібито від запалення легенів. Зухвала витівка китайця У, секретаря в школі японця Судзукі, змушує Ченя на відповідні дії проти японців, які, як з'ясовується, причетні до смерті його вчителя…
Справжня назва фільму «Школи лицарства».


Тривалість: 01:46:10
Якість: Remux 1080p [GER Transfer]
Відео:
кодек:
розмір кадру: 1920 х 1080
бітрейт: 28 Mб/с

Аудіо # 1:
мова: українська
переклад: двоголосий закадровий
кодек: 2.0
бітрейт: 192 кб/с
примітка: озвучка на фоні китайської мови.
назву перекладено як: "Кулак люті"

Аудіо # 2:
мова: українська
переклад: двоголосий закадровий
кодек: 5.1
бітрейт: 448 кб/с
примітка: озвучка на фоні англійського дубляжу.
назву перекладено як: "Шалений кулак"

Аудіо # 3:
мова: українська
переклад: двоголосий закадровий
кодек: 5.1
бітрейт: 448 кб/с
примітка: озвучка на фоні англійського дубляжу.
назву перекладено як: "Кулак люті"

Аудіо # 4:
мова: китайська
переклад: оригінал
кодек: -HD MA 7.1
бітрейт: 2434 кб/с

Субтитри: (Full)
мова: англійська
тип: пререндерні
формат: *.pgs
Info
General
Unique ID : 161599144146572577490229260457668179719 (0x7992DCF22686EBDA4698C4EF2462F707)
Complete name : F:\+Фільмографії-Брюс Лі [Bruce Lee]\Fist of Fury (Jing wu men) (1972) Remux 1080p 3xUkrChi Sub Eng [Hurtom].
Format :
Format version : Version 4
File size : 23.4 GiB
Duration : 1 h 46 min
Overall bit rate mode : Variable
Overall bit rate : 31.5 Mb/s
Movie name : Шалений кулак / Кулак люті / Fist of Fury / Jing wu men (1972) Remux 1080p 3xUkr/Chi | Sub Eng [Hurtom]
Encoded date : UTC 2019-08-25 15:20:13
Writing application : v25.0.0 ('Prog Noir') 64-bit
Writing library : libebml v1.3.6 + v1.4.9

Video
ID : 1
Format : AVC
Format/Info : Advanced Video Codec
Format profile : [email protected]
Format settings : CABAC / 4 Ref Frames
Format settings, CABAC : Yes
Format settings, Reference fra : 4 frames
Codec ID : V_MPEG4/ISO/AVC
Duration : 1 h 46 min
Bit rate mode : Variable
Bit rate : 28.0 Mb/s
Maximum bit rate : 35.0 Mb/s
Width : 1 920 pixels
Height : 1 080 pixels
Display aspect ratio : 16:9
Frame rate mode : Constant
Frame rate : 23.976 (24000/1001) FPS
Standard : NTSC
Color space : YUV
Chroma subsampling : 4:2:0
Bit depth : 8 bits
Scan type : Progressive
Bits/(Pixel*Frame) : 0.563
Stream size : 20.8 GiB (89%)
Title : Fist of Fury / Jing wu men (1972) Remux 1080p 3xUkr/Chi | Sub Eng [Hurtom]
Language : Ukrainian
Default : Yes
Forced : Yes
Color range : Limited
Color primaries : BT.709
Transfer characteristics : BT.709
Matrix coefficients : BT.709

Audio #1
ID : 2
Format : AC-3
Format/Info : Audio Coding 3
Commercial name : Dolby Digital
Codec ID : A_AC3
Duration : 1 h 46 min
Bit rate mode : Constant
Bit rate : 192 kb/s
Channel(s) : 2 channels
Channel layout : L R
Sampling rate : 48.0 kHz
Frame rate : 31.250 FPS (1536 SPF)
Bit depth : 16 bits
Compression mode : Lossy
Stream size : 146 MiB (1%)
Title : DVO [NLO.TV] 2.0
Language : Ukrainian
Service kind : Complete Main
Default : Yes
Forced : Yes

Audio #2
ID : 3
Format : AC-3
Format/Info : Audio Coding 3
Commercial name : Dolby Digital
Codec ID : A_AC3
Duration : 1 h 46 min
Bit rate mode : Constant
Bit rate : 448 kb/s
Channel(s) : 6 channels
Channel layout : L R C LFE Ls Rs
Sampling rate : 48.0 kHz
Frame rate : 31.250 FPS (1536 SPF)
Bit depth : 16 bits
Compression mode : Lossy
Stream size : 340 MiB (1%)
Title : DVO [1+1] 5.1
Language : Ukrainian
Service kind : Complete Main
Default : No
Forced : No

Audio #3
ID : 4
Format : AC-3
Format/Info : Audio Coding 3
Commercial name : Dolby Digital
Codec ID : A_AC3
Duration : 1 h 46 min
Bit rate mode : Constant
Bit rate : 448 kb/s
Channel(s) : 6 channels
Channel layout : L R C LFE Ls Rs
Sampling rate : 48.0 kHz
Frame rate : 31.250 FPS (1536 SPF)
Bit depth : 16 bits
Compression mode : Lossy
Stream size : 340 MiB (1%)
Title : DVO [QTV] 5.1
Language : Ukrainian
Service kind : Complete Main
Default : No
Forced : No

Audio #4
ID : 5
Format : XLL
Format/Info : Digital Theater Systems
Commercial name : -HD Master Audio
Codec ID : A_DTS
Duration : 1 h 46 min
Bit rate mode : Variable
Bit rate : 2 434 kb/s
Channel(s) : 8 channels
Channel layout : C L R LFE Lb Rb Lss Rss
Sampling rate : 48.0 kHz
Frame rate : 93.750 FPS (512 SPF)
Bit depth : 16 bits
Compression mode : Lossless
Stream size : 1.80 GiB (8%)
Title : Original -HD MA 7.1
Language : Chinese
Default : No
Forced : No

Text
ID : 6
Format : PGS
Muxing mode : zlib
Codec ID : S_HDMV/PGS
Codec ID/Info : Picture based subtitle format used on BDs/HD-DVDs
Duration : 1 h 44 min
Bit rate : 17.0 kb/s
Count of elements : 1346
Stream size : 12.7 MiB (0%)
Title : Eng (Full)
Language : English
Default : No
Forced : No
Скріншоти
Джерело: &
Запис звуку з ТБ: п. ProgBassing, п. qeren
Подяка п. Arsenfpu за готову доріжку від НЛО-ТБ
Окрема подяка п. wrongfunction за роботу над доріжками від 1+1 та QTV.
Український постер: п. somnambula
Особиста оцінка: 10 - без зайвих вагань рекомендую всім!


Золотий реліз (завантажене не впливає на рейтинг)
 Трекер:    Зареєстрований   

Завантажити / скачати фільм українською



відео для новачків



 Зареєстрований:   2019-08-25 22:01
 Розмір:   23.38 GB 
 Оцінка фільму:   10/10 (Голосів: 12)
   
igor911 
Модератор відео


З нами з: 18.01.08
Востаннє: 14.11.19
Повідомлень: 13642

2019-08-25 22:32  
MakRA, прохання вказати і людину, яка власне й робила доріжки 1+1 та qtv - п.wrongfunction.
MakRA 
VIP


З нами з: 10.11.18
Востаннє: 14.11.19
Повідомлень: 502

2019-08-25 22:37  
igor911 написано:
прохання вказати і людину

Саме писав Happy, випадково опублікував.

Oleksa9 
VIP


З нами з: 17.05.12
Востаннє: 14.11.19
Повідомлень: 386

2019-10-12 18:55  
1+1:
все ясно -> усе зрозуміло
прикинься -> вдай
взнають -> дізнаються
підстроїли -> підлаштували
хазяїн -> господар
якщьо (жін. голос)

Ваш часовий пояс: GMT + 2 Години

Нова тема   Відповісти