My Little Pony: Мандрівка Рейнбоу / My Little Pony: Rainbow Roadtrip (2019) 1080p Ukr/Eng

Нові коментарі

Нова тема   Відповісти
Автор Повідомлення
sergiyko.5 
VIP


З нами з: 25.02.16
Востаннє: 16.09.19
Повідомлень: 2559

2019-08-24 23:47  
My Little Pony: Мандрівка Рейнбоу / My Little Pony: Rainbow Roadtrip (2019) 1080p Ukr/Eng

My Little Pony: Мандрівка Рейнбоу / My Little Pony: Rainbow Roadtrip (2019) 1080p Ukr/Eng

Жанр: фентезі, пригоди, комедія, сімейний
Країна: США, Ірландія
Кінокомпанія: Hasbro Studios, DHX, Allspark Animation
Режисер: Ґілліан Комерфолд
Актори: Тара Стронґ, Ешлі Болл, Андреа Лібман, Табіта Сен Жермен, Кеті Візлак та інші

Сюжет:
Рейнбоу Деш запрошено на фестиваль на її честь у маленькому містечку на краю Еквестрії, де вона з подругами вирішують провести відпустку від буденних справ. Але їх здивуванню немає меж, коли вони бачать, що місто та його мешканці втратили всі кольори...




Тривалість: 00:57:30
Якість:

Відео: кодек: розмір кадру: 1920 х 1080 бітрейт: 10000 кб/с частота: 25.000 кд/с
Аудіо #1: мова: українська переклад: професійний дубльований кодек: 2.0ch бітрейт: 192 кб/с [ Stereo ]
Озвучення:
Аудіо #2: мова: англійська переклад: оригінал кодек: 2.0ch бітрейт: 192 кб/с

Примітка: українська доріжка записана з супутникової трансляції і синхронізована під HD відео, звук не розтягувався і не змінювався темп.
Про файл:
General
Unique ID : 9097287488820851536237201373544163712 (0x6D812E71885D3AE63159387B595A980)
Complete name : D:\Documents\Torrents\MULTSER\My Little Pony. Rainbow Roadtrip.2019.1080p..Ukr.Eng.
Format :
Format version : Version 4
File size : 4.18 GiB
Duration : 57 min 29 s
Overall bit rate : 10.4 Mb/s
Movie name : My Little Pony Rainbow Roadtrip 2019 1080p by sergiyko
Encoded date : UTC 2019-08-24 20:44:08
Writing application : v36.0.0 ('Is That Jazz?') 64-bit
Writing library : libebml v1.3.9 + v1.5.2
Cover : Yes
Attachments : cover.jpg

Video
ID : 1
Format : AVC
Format/Info : Advanced Video Codec
Format profile : [email protected]
Format settings : CABAC / 6 Ref Frames
Format settings, CABAC : Yes
Format settings, Reference : 6 frames
Codec ID : V_MPEG4/ISO/AVC
Duration : 57 min 29 s
Bit rate : 10.0 Mb/s
Width : 1 920 pixels
Height : 1 080 pixels
Display aspect ratio : 16:9
Frame rate mode : Constant
Frame rate : 25.000 FPS
Color space : YUV
Chroma subsampling : 4:2:0
Bit depth : 8 bits
Scan type : Progressive
Bits/(Pixel*Frame) : 0.194
Stream size : 4.03 GiB (96%)
Title : My Little Pony Rainbow Roadtrip 2019
Language : English
Default : Yes
Forced : No

Audio #1
ID : 2
Format : AC-3
Format/Info : Audio Coding 3
Commercial name : Dolby Digital
Codec ID : A_AC3
Duration : 57 min 29 s
Bit rate mode : Constant
Bit rate : 192 kb/s
Channel(s) : 2 channels
Channel layout : L R
Sampling rate : 48.0 kHz
Frame rate : 31.250 FPS (1536 SPF)
Bit depth : 16 bits
Compression mode : Lossy
Delay relative to video : -200 ms
Stream size : 78.9 MiB (2%)
Title : DUB | ПлюсПлюс
Language : Ukrainian
Service kind : Complete Main
Default : Yes
Forced : Yes

Audio #2
ID : 3
Format : AC-3
Format/Info : Audio Coding 3
Commercial name : Dolby Digital
Codec ID : A_AC3
Duration : 57 min 29 s
Bit rate mode : Constant
Bit rate : 192 kb/s
Channel(s) : 2 channels
Channel layout : L R
Sampling rate : 48.0 kHz
Frame rate : 31.250 FPS (1536 SPF)
Bit depth : 16 bits
Compression mode : Lossy
Delay relative to video : -200 ms
Stream size : 78.9 MiB (2%)
Title : Original
Language : English
Service kind : Complete Main
Default : No
Forced : No
Скріншоти:


Автор запису/зведення: sergiyko


 Трекер:    Зареєстрований   

Завантажити / скачати мультфільм українською



відео для новачків



 Зареєстрований:   2019-08-24 23:47
 Розмір:   4.18 GB 
 Оцінка мультфільму:   7/10 (Голосів: 3)
   
sergiyko.5 
VIP


З нами з: 25.02.16
Востаннє: 16.09.19
Повідомлень: 2559

2019-08-25 00:13  
Завантажене відео має високу якість картинки, на відміну від наявного в інтернеті ріпу 1080p


Hanway 
Відео Гуртом - запис з ТБ
Відео Гуртом - запис з ТБ


З нами з: 20.05.11
Востаннє: 15.09.19
Повідомлень: 675

2019-08-25 01:52  
У цьому ріпі теж купа недоліків. Очевидний логотип, знижена чіткість через деінтерлейс телеканалу. Треба чекати на адекватний ріп з Нетфліксу чи ще з якоїсь пристойної платформи, а зараз обидва мають право на існування.
sergiyko.5 
VIP


З нами з: 25.02.16
Востаннє: 16.09.19
Повідомлень: 2559

2019-08-25 11:07  
Чіткість тут краща, і звук майже недоторканий.
Ваш часовий пояс: GMT + 2 Години

Нова тема   Відповісти