Кенан і Кел (Сезон 2) Kenan & Kel (Season 2) (1997) 1080p Ukr/Eng

Нові коментарі

Нова тема   Відповісти
Автор Повідомлення
Anonymous 







2019-08-24 21:41  
Кенан і Кел (Сезон 2) Kenan & Kel (Season 2) (1997) 1080p Ukr/Eng

Кенан і Кел (Сезон 2) Kenan & Kel (Season 2) (1997) 1080p Ukr/Eng


Жанр: сімейний, комедія
Країна: США



Кінокомпанія: Nickelodeon
Режисер: Браян Робінс, Кім Філдс.
Актори: Кенан Томпсон, Кел Мітчел, Кен Форе, Тіл Мерчанд, Ванесса Баден і Ден Фрішмен.

Сюжет:
Кенан Рокмор - дорослий школяр, який працює у міні-гастрономі "Рігбі". Кел Кімбел - його найкращий друг, який і дня не може прожити без солодкої води "Оранжад". Кріс Потер - бос Кенана у міні-гастрономі. Кенан живе у Чикаго зі своїми батьками та молодшою сестрою. Здавалося, про що іще можна мріяти. Однак Кенан і Кел постійно потрапляють до неочікуваної халепи завдяки Келові...


Тривалість: 1 серія: 22хв (цілком серій: 13 з 13)
Перелік серій
1.Pair-Rental Guidance
2.Clowning Around
3.The Lottery
4.Who Loves Orange Soda?
5.Haven't Got Time for the Paint
6.A Star is Peeved
7.Ditch Day Afternoon
8.Get The Kel Outta Here
9.Foul Bull
10.The Crush
11.Turkey Day
12.Bye-Bye Kenan (1)
13.Bye-Bye Kenan (2)
Якість:
Відео:
кодек:
розмір кадру: 1440 х 1080
бітрейт: 7000 кб/с

Аудіо # 1:
мова: українська
переклад: багатоголосий закадровий
кодек: 2.0
бітрейт: 192 кб/с

Аудіо # 2:
мова: англійська
кодек: 2.0
бітрейт: 192 кб/с
Info
Format :
Format version : Version 4
File size : 1.26 GiB
Duration : 24 min 31 s
Overall bit rate : 7 357 kb/s
Encoded date : UTC 2019-08-21 08:26:50
Writing application : v36.0.0 ('Is That Jazz?') 64-bit
Writing library : libebml v1.3.9 + v1.5.2
Attachments : poster.gif

Video
ID : 1
Format : AVC
Format/Info : Advanced Video Codec
Format profile : [email protected]
Format settings : CABAC / 1 Ref Frames
Format settings, CABAC : Yes
Format settings, Reference : 1 frame
Format settings, GOP : M=1, N=30
Codec ID : V_MPEG4/ISO/AVC
Duration : 24 min 31 s
Bit rate mode : Constant
Bit rate : 6 992 kb/s
Width : 1 440 pixels
Height : 1 080 pixels
Display aspect ratio : 4:3
Frame rate mode : Constant
Frame rate : 29.970 (30000/1001) FPS
Color space : YUV
Chroma subsampling : 4:2:0
Bit depth : 8 bits
Scan type : Progressive
Bits/(Pixel*Frame) : 0.150
Stream size : 1.19 GiB (95%)
Language : English
Default : Yes
Forced : No
Color range : Limited
Color primaries : BT.709
Transfer characteristics : BT.709
Matrix coefficients : BT.709

Audio #1
ID : 2
Format : AC-3
Format/Info : Audio Coding 3
Commercial name : Dolby Digital
Codec ID : A_AC3
Duration : 24 min 31 s
Bit rate mode : Constant
Bit rate : 192 kb/s
Channel(s) : 2 channels
Channel layout : L R
Sampling rate : 48.0 kHz
Frame rate : 31.250 FPS (1536 SPF)
Bit depth : 16 bits
Compression mode : Lossy
Delay relative to video : -33 ms
Stream size : 33.7 MiB (3%)
Title : MVO - ICTV
Language : Ukrainian
Service kind : Complete Main
Default : Yes
Forced : No

Audio #2
ID : 3
Format : LC
Format/Info : Advanced Audio Codec Low Complexity
Codec ID : A_AAC-2
Duration : 24 min 31 s
Bit rate : 192 kb/s
Channel(s) : 2 channels
Channel layout : L R
Sampling rate : 48.0 kHz
Frame rate : 46.875 FPS (1024 SPF)
Compression mode : Lossy
Delay relative to video : -33 ms
Stream size : 33.7 MiB (3%)
Language : English
Default : No
Forced : No
Скріншоти







Подяки: пану Kelolot за запис на VHS та оцифрування звуку. Пану ua2004 за синхронізацію під старенькі 'и та пану apollo90 за звук до серії №7 і пану golgofa за її синхронізацію під .
Щодо якості відео:
Деякі серії мають гіршу чіткість та кольори ніж у старих 'ах, також вони точно не тягнують до Full HD, але на данний момент це все одно найкраща якість в інтернеті, яку мені вдалося знайти.

Джерело:
Особиста оцінка: 8 - мені сподобалося.
Це був найперший серіал, який я ще наприкінці 90х побачив по Nickelodeon. Якщо не зважати на настольгію то все ж перевірку роками він на мою думку не пройшов, і дивитися усі сезони буде важкувато, тому цього сезону достатньо для ознаймлення з ним чи просто згадати дитинство/юність.


Срібний реліз (на рейтинг впливає 50% завантаженого)
 Трекер:    Зареєстрований   

Завантажити / скачати серіал українською



відео для новачків



 Зареєстрований:   2019-09-03 19:07
 Розмір:   16.38 GB 
 Оцінка серіалу:   9.9/10 (Голосів: 15)
   
Shaketha 
Новенький


З нами з: 06.12.13
Востаннє: 24.10.20
Повідомлень: 12

2019-08-24 22:16  
О,дякую велике)С превеликим задоволенням передивлюся другий сезон у 1080.А першого сезону повністю нема на українській?
Anonymous 







2019-08-25 07:04  
Shaketha написано:
А першого сезону повністю нема на українській?

Там усього кілька серій. Повністю є тільки 2 сезон.

Shaketha 
Новенький


З нами з: 06.12.13
Востаннє: 24.10.20
Повідомлень: 12

2019-08-25 09:19  
Дуже шкода.Напевно повністю на українській цей крутий серіал ми вже ніколи не побачимо((
Anonymous 







2019-08-25 10:05  
Shaketha написано:
Дуже шкода.Напевно повністю на українській цей крутий серіал ми вже ніколи не побачимо((


також його люблю. це був перший серіал який я ще наприкінці 90х побачив по Нікелоудіон.
але все ж перевірку роками він на мою думку не пройшов, і дивитися усі сезони буде важкувато.

RobertMenus 
Відео Гуртом - субтитрування
Відео Гуртом - субтитрування


З нами з: 08.03.11
Востаннє: 01.12.20
Повідомлень: 189

2019-08-25 10:29  
leicheman
маєте рацію.
а один сезон - це в рази краще, ніж взагалі нічого.

супер. заздалегідь вдячний!

Shaketha 
Новенький


З нами з: 06.12.13
Востаннє: 24.10.20
Повідомлень: 12

2019-08-25 11:08  
Ну у всіх як кажуть думки різні.Для мене це один із самих ностальгічних та улюблених серіалів.Мої три улюблених серіала з Ictv це Кенан і Кел,Альф та Чудернацька наука.До сих пір згадаю як я прибігав зі школи і дивився ці крутезні серіали.Десь півроку тому назад дивився Кенана і Кела,ті серії які були в інтернеті.І мені сподобалося,гумор як на мене і досі непоганий,а озвучення серіалу взагалі шедевр))Тому як на мене Кенан і Кел і в наші дні досить непогано себе почуває))І мені дуже хочеться,щоб цей серіал і Чудернацька наука теж,були повністю на українській на Гуртом.Але це все тільки моя думка)
ExtremeCat 
Поважний учасник


З нами з: 12.10.10
Востаннє: 01.12.20
Повідомлень: 164

2019-08-25 13:22  
Дуже крутий серіал! Для мене зі смаком дитинства Happy Може ще є у когось десь на відео касетах, десь на горищі Happy
kiboal 
Свій


З нами з: 25.12.14
Востаннє: 22.11.20
Повідомлень: 134

2019-08-26 12:20  
хто хоче оранжат?
alex2 
Поважний учасник


З нами з: 01.02.12
Востаннє: 01.12.20
Повідомлень: 191

2019-08-27 09:27  
ООО, знову починається))) клас.
bot 
робот


З нами з: 30.09.07
Востаннє: 26.05.05
Повідомлень: 26416

2019-09-03 19:07  
Тему перенесено з Анонси релізів до форуму Серіали в HD


leicheman

akon111 
Відео Гуртом - запис з ТБ
Відео Гуртом - запис з ТБ


З нами з: 28.08.09
Востаннє: 01.12.20
Повідомлень: 1359

2019-10-21 18:50  
знайшлись всі серії цього серіалу?
bogdanich 
VIP


З нами з: 24.10.13
Востаннє: 01.12.20
Повідомлень: 729

2020-04-15 21:57  
Тільки-но згадав про цей серіал, а тут виявляється повний другий сезон! Яка радість! Wide grin
Дякую! Згодом заберу!... Happy

Ваш часовий пояс: GMT + 2 Години

Нова тема   Відповісти