My Little Pony: Дружба - це диво / My Little Pony: Friendship is Magic (Сезон 9) (2019) 1080p Ukr/Eng

Нові коментарі

Нова тема   Відповісти
Автор Повідомлення
sergiyko.5 
Забанено
Забанено


З нами з: 25.02.16
Востаннє: 29.10.20
Повідомлень: 3648

2019-08-24 13:11  


My Little Pony: Дружба - це диво / My Little Pony: Friendship is Magic (Сезон 9) (2019) 1080p

My Little Pony: Дружба - це диво / My Little Pony: Friendship is Magic (Сезон 9) (2019) 1080p Ukr/Eng

Жанр: фентезі, пригоди, комедія, сімейний
Країна: США, Канада, Ірландія
Компанія: DHX Media, Studio B Productions, Hasbro Studios
Режисер: Лорен Фауст, Джейсон Тіссен, Джеймс Вуттон, Джим Міллер, Денні Лу, Тім Стабі
Ролі озвучують: Тара Стронґ, Ешлі Болл, Андреа Лібман, Табіта Сен Жермен, Кеті Візлак, Ніколь Олівер

Сюжет:
У країні Еквестрія, у казковому місті Понівіль, у мирі та гармонії живуть Твайлайт та її подруги. Мешкають там не тільки поні, але й пегаси, єдинороги і, навіть, алінкорни – єдинороги з крилами, що володіють неймовірною магічною силою. Усі вони – частина величезного світу, яким вони ж і правлять. Магія, чудеса та неймовірні пригоди відбуваються тут на кожному кроці і наші допитливі друзі завжди поспішають з'ясувати, що ж сталося.




Тривалість: 1 серія: 22:05 (цілком серій: 26 з 26)
Якість:

Відео: кодек: розмір кадру: 1920 х 1080 бітрейт: 5000 кб/с
Аудіо #1: мова: українська переклад: професійний дубльований кодек: 2.0ch бітрейт: 192 кб/с [ Stereo ]
Озвучення:
Аудіо #2: мова: англійська переклад: оригінал кодек: 5.1ch бітрейт: 384 кб/с

Примітка: україньська доріжка записана з супутникової трансляції телеканала ПлюсПлюс і синхронізована під HD відео. Серії 20-23 наявні в якості , пізніше будуть оновлені на кращу якість
Перелік серій:
01 The Beginning of the End.Part 1
02 The Beginning of the End. Part 2
03 Uprooted
04 Sparkle's Seven
05 The Point of No Return
06 Спільні інтереси Common Ground
07 Бути собою She's All Yak
08 Ворогодрузі Frenemies
09 Чарівні та небезпечні Sweet and Smoky
10 Збирання врожаю Going to Seed
11 Шкільна радниця Student Counsel
12 Найважливіший пошук The Last Crusade
13 Від світанку до заходу сонця Between Dark and Dawn
14 Останій сміх Thats a Laugh
15 У грі важливі всі 2.4.6 Greaaat
16 Вікторина A.Trivial Problem
17 Summer Sun Setback
18 She Talks to Angel
19 Втратити дракона
20 Пошук кандидата
21 Сумніви Дерін
22 Дорослішати складно
23 Секрет Біг Мака
24 Кінець кінця. Ч 1
25 Кінець кінця. Ч 2
26 Остання проблема
Про файл:
General
Unique ID : 44147328632525358227533920451319721956 (0x2136775A0CE024B7CD622D2505A66FE4)
Complete name : D:\Documents\Torrents\MULTSER\My Little Pony. Friendship Is Magic S09 1080p\My Little Pony.S09E01.The Beginning of the End.Part 1.1080p..
Format :
Format version : Version 4
File size : 894 MiB
Duration : 22 min 4 s
Overall bit rate : 5 658 kb/s
Movie name : My Little Pony. Friendship Is Magic S09 1080p by sergiyko
Encoded date : UTC 2019-09-01 08:53:01
Writing application : v36.0.0 ('Is That Jazz?') 64-bit
Writing library : libebml v1.3.9 + v1.5.2

Video
ID : 1
Format : AVC
Format/Info : Advanced Video Codec
Format profile : [email protected]
Format settings : CABAC / 4 Ref Frames
Format settings, CABAC : Yes
Format settings, Reference : 4 frames
Codec ID : V_MPEG4/ISO/AVC
Duration : 22 min 4 s
Bit rate : 5 080 kb/s
Width : 1 920 pixels
Height : 1 080 pixels
Display aspect ratio : 16:9
Frame rate mode : Constant
Frame rate : 23.976 (24000/1001) FPS
Color space : YUV
Chroma subsampling : 4:2:0
Bit depth : 8 bits
Scan type : Progressive
Bits/(Pixel*Frame) : 0.102
Stream size : 802 MiB (90%)
Title : S09E01.The Beginning of the End.Part 1
Language : English
Default : Yes
Forced : No
Color range : Limited
Color primaries : BT.709
Transfer characteristics : BT.709
Matrix coefficients : BT.709

Audio #1
ID : 2
Format : AC-3
Format/Info : Audio Coding 3
Commercial name : Dolby Digital
Codec ID : A_AC3
Duration : 22 min 4 s
Bit rate mode : Constant
Bit rate : 192 kb/s
Channel(s) : 2 channels
Channel layout : L R
Sampling rate : 48.0 kHz
Frame rate : 31.250 FPS (1536 SPF)
Bit depth : 16 bits
Compression mode : Lossy
Delay relative to video : -42 ms
Stream size : 30.3 MiB (3%)
Title : DUB 2ch | ПлюсПлюс
Language : Ukrainian
Service kind : Complete Main
Default : Yes
Forced : Yes

Audio #2
ID : 3
Format : AC-3
Format/Info : Audio Coding 3
Commercial name : Dolby Digital
Codec ID : A_AC3
Duration : 22 min 4 s
Bit rate mode : Constant
Bit rate : 384 kb/s
Channel(s) : 6 channels
Channel layout : L R C LFE Ls Rs
Sampling rate : 48.0 kHz
Frame rate : 31.250 FPS (1536 SPF)
Bit depth : 16 bits
Compression mode : Lossy
Delay relative to video : -42 ms
Stream size : 60.7 MiB (7%)
Title : Original
Language : English
Service kind : Complete Main
Default : No
Forced : No
Скріншоти:


Запис/зведення: sergiyko


Бронзовий реліз (на рейтинг впливає 75% завантаженого)
 Трекер:    Зареєстрований   

Завантажити / скачати мультфільм українською



відео для новачків



 Зареєстрований:   2019-09-26 00:32
 Розмір:   22.14 GB 
 Оцінка мультсеріалу:   10/10 (Голосів: 7)
   
bot 
робот


З нами з: 30.09.07
Востаннє: 26.05.05
Повідомлень: 27884

2019-08-24 13:11  
Тему перенесено з Мультсеріали в HD до форуму Анонси релізів


sergiyko.5

bot 
робот


З нами з: 30.09.07
Востаннє: 26.05.05
Повідомлень: 27884

2019-09-01 12:00  
Тему перенесено з Анонси релізів до форуму Мультсеріали в HD


sergiyko.5

sergiyko.5 
Забанено
Забанено


З нами з: 25.02.16
Востаннє: 29.10.20
Повідомлень: 3648

2019-09-01 19:06  
Додав 2 серію.
sergiyko.5 
Забанено
Забанено


З нами з: 25.02.16
Востаннє: 29.10.20
Повідомлень: 3648

2019-09-02 19:03  
Додав 3 серію.
sergiyko.5 
Забанено
Забанено


З нами з: 25.02.16
Востаннє: 29.10.20
Повідомлень: 3648

2019-09-06 11:42  
Додав 4-6 серії.
sergiyko.5 
Забанено
Забанено


З нами з: 25.02.16
Востаннє: 29.10.20
Повідомлень: 3648

2019-09-06 17:07  
Додав 7 серію.
sergiyko.5 
Забанено
Забанено


З нами з: 25.02.16
Востаннє: 29.10.20
Повідомлень: 3648

2019-09-11 17:31  
Додав 8-12 серії.
uasoft 
Новенький


З нами з: 03.12.16
Востаннє: 12.04.21
Повідомлень: 19

2019-09-13 09:11  
Не можливо скачати. Хтось може встати на роздачу?
sergiyko.5 
Забанено
Забанено


З нами з: 25.02.16
Востаннє: 29.10.20
Повідомлень: 3648

2019-09-16 16:58  
Додав 13-17 серії.
sergiyko.5 
Забанено
Забанено


З нами з: 25.02.16
Востаннє: 29.10.20
Повідомлень: 3648

2019-09-26 00:33  
Додав 18-26 серії. Сезон повний.
ZETMAN 
Свій


З нами з: 09.03.13
Востаннє: 14.04.21
Повідомлень: 85

2019-09-26 01:12  
Ну ось і все, кінець! Дуже шкода що закінчився такий чудовий мульт. Лорен Фауст і команда звичайно молодці, створили краще покоління ціеї франшизи.
Не мало було зроблено роботи над персонажами, сценарієм, анімацією і звичайно ж головним-піснями, багато з яких надовго запам'ятаються мотивами всім фанатам поні. Мушу визнати я до останнього відкладав перегляд цього мультсеріалу. Чи не вважав його цікавим поки один друг на роботі не розповів а вірніше показав пару серій.
Після чого стало зрозуміло що я просто зобов'язаний його подивитися. Шкодую що відкладав перегляд раніше! Всього два місяці знадобилося щоб переглянути усе залпом в два заходи (чекав коли вийде дев'ятий сезон повністю) тепер подивлюся його!
Він безперечно залишить в пам'яті всіх кращі і прекрасні спогади. Хтось можливо напише що мультсеріал для дівчаток, але я вважаю його сімейним. Він дав чимало уроків дружби і доброти!
У нашому світі дуже не вистачає таких мультів. У моєму дитинстві теж я їх не пам'ятаю крім козаків. Ну додати мені більше нічого! Радий тому що хоч не надовго, але став частиною броні фендому.
My little pony Frendship of Megic дякую вам за теплі спогади.

odin_doma2 
Свій


З нами з: 22.07.08
Востаннє: 12.04.21
Повідомлень: 75

2019-09-26 12:13  
sergiyko.5

Велике дякую за Вашу роботу! Неперевершений серіал, діти у захваті!

odin_doma2 
Свій


З нами з: 22.07.08
Востаннє: 12.04.21
Повідомлень: 75

2019-09-27 09:28  
Сідери, станьте на роздачу, будь ласка! зупинився на 98%...
autumnblaze 
Новенький


З нами з: 15.04.19
Востаннє: 09.04.21
Повідомлень: 5

2019-11-08 22:57  
Вже доба, як ця роздача в мене по завантаженому лежить на нулі... роздав би її хтось чи шо.......
autumnblaze 
Новенький


З нами з: 15.04.19
Востаннє: 09.04.21
Повідомлень: 5

2019-11-09 15:48  
Дякую.
valeravi 
Новенький


З нами з: 26.12.13
Востаннє: 04.04.21
Повідомлень: 1

2020-02-12 18:30  
А що з англ. субтитрами? Написано що є, а насправді нема?
Ваш часовий пояс: GMT + 2 Години

Нова тема   Відповісти