Люди в чорному: Інтернешнл / Men in Black: International (2019) Remux 1080p Ukr/Eng | Sub Ukr/Eng

Нові коментарі

Нова тема   Відповісти
Автор Повідомлення
Anonymous 







2019-08-23 22:24  
Люди в чорному: Інтернешнл / Men in Black: International (2019) Remux 1080p Ukr/Eng | Sub Ukr/Eng

Люди в чорному: Інтернешнл / Men in Black: International (2019) Remux 1080p Ukr/Eng | Sub Ukr/Eng
Альтернативні постери

Люди в чорному: Інтернешнл / Men in Black: International (2019) Remux 1080p Ukr/Eng | Sub Ukr/Eng

Люди в чорному: Інтернешнл / Men in Black: International (2019) Remux 1080p Ukr/Eng | Sub Ukr/Eng



Жанр: екшн, пригодницький, комедія, фантастика
Країна: США



Кінокомпанія: Columbia Pictures, Sony Pictures Entertainment (SPE), Amblin Entertainment
Режисер: Ф. Ґері Ґрей / F. Gary Gray
Актори: Кріс Гемсворт / Chris Hemsworth, Тесса Томпсон / Tessa Thompson, Ліам Нісон / Liam Neeson, Кумейл Нанджіані / Kumail Nanjiani, Ребекка Ферґюсон / Rebecca Ferguson, Рейф Спалл / Rafe Spall, Емма Томпсон / Emma Thompson, Лоран Буржуа / Laurent Bourgeois, Ларрі Буржуа / Larry Bourgeois, Спенсер Вілдінґ / Spencer Wilding та інші

Сюжет:
Ви навіть про це не підозрюєте, але існує таємна організація, яка охороняє Землю від різного роду інопланетян і дивних істот. Це Люди в чорному. Як не складно здогадатися, вони майже завжди в чорних ділових костюмах. У них є свої агенти в усіх великих містах на нашій планеті. У кожного з Людей в чорному є нереально круті стволи та пристосування, які допомагають стежити за порядком на Землі, щоб інопланетяни не турбували людей. Час від часу там навіть проводиться набір новачків – так у пару до Агента Н потрапила Агент М. Ці двоє точно добре спрацюються, адже це так весело стріляти по монстрам. Буде багато драйву.
Офіційні українські трейлери:




Рейтинг MPAA: PG-13 - дітям до 13 років перегляд не бажаний
Вікова категорія: 12+

Тривалість: 01:55:00
Якість: Remux 1080p [BluRay EUR]
Відео:
кодек:
розмір кадру: 1920x1080
бітрейт: 25,8 Мб/с

Аудіо # 1:
мова: українська
переклад: професійний дубльований
кодек: 5.1
бітрейт: 640 кб/с

Аудіо # 2:
мова: українська
переклад: професійний дубльований
кодек: 2.0 [стерео]
бітрейт: 192 кб/с

Аудіо # 3:
мова: англійська
переклад: оригінал
кодек: -HD MA 5.1
бітрейт: 2254 кб/с

Субтитри # 1-2:
мова: українська (форсовані, повні)
тип: пререндерні
формат: pgs

Субтитри # 3:
мова: англійська
тип: пререндерні
формат: pgs

Збережено оригінальні розділи, як на Blu-ray
Info
Код:

Complete name               : Men in Black International (2019) [Ukr,Eng sub.Ukr,Eng] Remux 1080p [Hurtom].
Format                      :
Format version              : Version 4
File size                   : 23.2 GiB
Duration                    : 1 h 55 min
Overall bit rate mode       : Variable
Overall bit rate            : 28.9 Mb/s
Movie name                  : Люди в чорному: Інтернешнл / Men in Black: International (2019) [Ukr,Eng sub.Ukr,Eng] Remux 1080p [Hurtom]
Encoded date                : UTC 2019-10-01 14:07:22
Writing application         : v37.0.0 ('Leave It') 64-bit
Writing library             : libebml v1.3.9 + v1.5.2
Cover                       : Yes
Attachments                 : cover.jpg

Video
ID                          : 1
Format                      : AVC
Format/Info                 : Advanced Video Codec
Format profile              : [email protected]
Format settings             : CABAC / 2 Ref Frames
Format settings, CABAC      : Yes
Format settings, Reference  : 2 frames
Format settings, GOP        : M=1, N=10
Codec ID                    : V_MPEG4/ISO/AVC
Duration                    : 1 h 55 min
Bit rate mode               : Variable
Bit rate                    : 25.8 Mb/s
Width                       : 1 920 pixels
Height                      : 1 080 pixels
Display aspect ratio        : 16:9
Frame rate mode             : Constant
Frame rate                  : 23.976 (24000/1001) FPS
Color space                 : YUV
Chroma subsampling          : 4:2:0
Bit depth                   : 8 bits
Scan type                   : Progressive
Bits/(Pixel*Frame)          : 0.518
Stream size                 : 20.7 GiB (89%)
Title                       : Люди в чорному: Інтернешнл / Men in Black: International (2019) Remux 1080p [BluRay EUR]
Language                    : English
Default                     : Yes
Forced                      : No

Audio #1
ID                          : 2
Format                      : AC-3
Format/Info                 : Audio Coding 3
Commercial name             : Dolby Digital
Codec ID                    : A_AC3
Duration                    : 1 h 55 min
Bit rate mode               : Constant
Bit rate                    : 640 kb/s
Channel(s)                  : 6 channels
Channel layout              : L R C LFE Ls Rs
Sampling rate               : 48.0 kHz
Frame rate                  : 31.250 FPS (1536 SPF)
Compression mode            : Lossy
Delay relative to video     : 24 ms
Stream size                 : 526 MiB (2%)
Title                       : Dub [Blu-ray EUR], 5.1 640 Kbps
Language                    : Ukrainian
Service kind                : Complete Main
Default                     : Yes
Forced                      : No

Audio #2
ID                          : 3
Format                      : AC-3
Format/Info                 : Audio Coding 3
Commercial name             : Dolby Digital
Codec ID                    : A_AC3
Duration                    : 1 h 54 min
Bit rate mode               : Constant
Bit rate                    : 192 kb/s
Channel(s)                  : 2 channels
Channel layout              : L R
Sampling rate               : 48.0 kHz
Frame rate                  : 31.250 FPS (1536 SPF)
Compression mode            : Lossy
Delay relative to video     : -8 ms
Stream size                 : 158 MiB (1%)
Title                       : Dub [iTunes], 2.0 192 Kbps
Language                    : Ukrainian
Service kind                : Complete Main
Default                     : No
Forced                      : No

Audio #3
ID                          : 4
Format                      : XLL
Format/Info                 : Digital Theater Systems
Commercial name             : -HD Master Audio
Codec ID                    : A_DTS
Duration                    : 1 h 55 min
Bit rate mode               : Variable
Bit rate                    : 2 254 kb/s
Channel(s)                  : 6 channels
Channel layout              : C L R Ls Rs LFE
Sampling rate               : 48.0 kHz
Frame rate                  : 93.750 FPS (512 SPF)
Bit depth                   : 16 bits
Compression mode            : Lossless
Stream size                 : 1.81 GiB (8%)
Title                       : Original, -HD MA 5.1 2253 Kbps
Language                    : English
Default                     : No
Forced                      : No

Text #1
ID                          : 5
Format                      : PGS
Codec ID                    : S_HDMV/PGS
Codec ID/Info               : Picture based subtitle format used on BDs/HD-DVDs
Duration                    : 6 s 507 ms
Bit rate                    : 27.5 kb/s
Count of elements           : 6
Stream size                 : 21.9 KiB (0%)
Title                       : Ukr Forced
Language                    : Ukrainian
Default                     : Yes
Forced                      : Yes

Text #2
ID                          : 6
Format                      : PGS
Codec ID                    : S_HDMV/PGS
Codec ID/Info               : Picture based subtitle format used on BDs/HD-DVDs
Duration                    : 1 h 53 min
Bit rate                    : 31.9 kb/s
Count of elements           : 3038
Stream size                 : 25.9 MiB (0%)
Title                       : Ukr Full
Language                    : Ukrainian
Default                     : No
Forced                      : No

Text #3
ID                          : 7
Format                      : PGS
Codec ID                    : S_HDMV/PGS
Codec ID/Info               : Picture based subtitle format used on BDs/HD-DVDs
Duration                    : 1 h 43 min
Bit rate                    : 40.5 kb/s
Count of elements           : 2982
Stream size                 : 29.9 MiB (0%)
Title                       : Eng Full
Language                    : English
Default                     : No
Forced                      : No

Menu
00:00:00.000                : :Chapter 01
00:08:09.030                : :Chapter 02
00:15:43.442                : :Chapter 03
00:20:19.927                : :Chapter 04
00:27:27.479                : :Chapter 05
00:34:39.994                : :Chapter 06
00:46:20.611                : :Chapter 07
00:50:42.372                : :Chapter 08
00:59:11.547                : :Chapter 09
01:03:23.257                : :Chapter 10
01:11:01.757                : :Chapter 11
01:14:46.273                : :Chapter 12
01:25:41.553                : :Chapter 13
01:28:59.917                : :Chapter 14
01:34:39.590                : :Chapter 15
01:43:42.174                : :Chapter 16





Джерело: &
Особиста оцінка: 7 - мені сподобалося, гарний розважальний пригодницький фільм для родинного перегляду

01.10.2019 реліз оновлено - додано українську 5.1 доріжку з блурея, відеоряд замінено з BluRay EUR


Золотий реліз (завантажене не впливає на рейтинг)
 Трекер:    Зареєстрований   

Завантажити / скачати фільм українською



відео для новачків



 Зареєстрований:   2019-10-01 17:31
 Розмір:   23.24 GB 
 Оцінка фільму:   7.6/10 (Голосів: 34)
 ЗАЛИШАЙТЕСЬ ЯКОМОГА ДОВШЕ НА РОЗДАЧІ! ЗАВАНТАЖИВ САМ - ДАЙ ЗАВАНТАЖИТИ ІНШИМ!
   
MakRA 
VIP


З нами з: 11.11.18
Востаннє: 17.10.19
Повідомлень: 435

2019-08-24 20:01  
Подивилися з дружиною. Фільм обом сподобався. Розважальний, смішний. Рекомендую до перегляду!
vatanuki 
Свій


З нами з: 23.09.11
Востаннє: 16.10.19
Повідомлень: 100

2019-08-25 11:10  
Якеж примітивнею. Поганенько знято, дешеві декорації і крафіка. Наче студенти знімали
Xilence 
Новенький


З нами з: 21.04.16
Востаннє: 17.10.19
Повідомлень: 3

2019-08-25 14:10  
5.6/10 - це ще багато
fatum69 
Частий відвідувач


З нами з: 10.12.16
Востаннє: 17.10.19
Повідомлень: 36

2019-08-26 20:36  
Хороший, веселий фільм. Для вечірнього перегляду саме те!
ryder2 
Новенький


З нами з: 02.11.17
Востаннє: 16.10.19
Повідомлень: 21

2019-08-27 09:25  
погано що нема в укр перекладі в 5.1 Sad (1)
Anonymous 







2019-08-27 09:33  
ryder2 написано:
погано що нема в укр перекладі в 5.1

має бути пізніше

ВАВУНЯ 
VIP


З нами з: 30.06.15
Востаннє: 14.10.19
Повідомлень: 265

2019-09-03 11:23  
дуже слабенько.((
6/10

Anonymous 







2019-10-01 17:35  
Реліз оновлено - додано українську 5.1 доріжку з блурея, відеоряд замінено з BluRay EUR

Додано через 3 хвилини 34 секунди:

Цитата:
відеоряд замінено з BluRay EUR

трохи інша тривалість - тепер на 10 секунд довший

Ваш часовий пояс: GMT + 2 Години

Нова тема   Відповісти