Месники: Завершення / Avengers: Endgame (2019) 1080p 3D [Half OverUnder] Ukr/Eng | Sub Eng

Нові коментарі

Нова тема   Відповісти
Автор Повідомлення
Anonymous 







2019-08-23 20:35  
Месники: Завершення / Avengers: Endgame (2019) 1080p 3D [Half OverUnder] Ukr/Eng | Sub Eng

Альтернативні постери:




Жанр: бойовик, пригодницький, фантастика, фентезі
Країна: США



Кінокомпанія: Brazil Production Services, Double Negative (DNEG), Marvel Studios
Режисер: Ентоні Руссо, Джо Руссо
Актори: Роберт Дауні мол., Кріс Еванс, Марк Руффало, Кріс Гемсворт, Скарлетт Йоханссон, Джеремі Реннер, Дон Чідл, Пол Радд, Чедвік Боузман, Брі Ларсон та інші

Сюжет:
Месники і Вартові Галактики вступають в останню стадію війни з Таносом, який володіє всемогутньою Рукавичкою Нескінченності. Гряде фінальна битва між силами героїв і Божевільного Титана, що раз і назавжди визначить подальшу долю не тільки Землі, але і всього всесвіту.
Офіційні українські трейлери:

тизер:


трейлер:

Рейтинг MPAA: PG-13 - дітям до 13 років перегляд не бажаний
Вікова категорія: 12+
Тривалість: 03:01:11
Якість: 1080p 3D

Відео:
кодек:
розмір кадру: 1920 х 1080
бітрейт: 12 Мб/с
формат 3D: Half OverUnder / Вертикальна анаморфна стереопара
порядок ракурсів: лівий ракурс перший
Відео для перегляду на 3D обладнанні!

Аудіо # 1:
мова: українська
переклад: професійний дубльований | студія LeDoyen
кодек: 5.1
бітрейт: 640 кб/с

Аудіо # 2:
мова: українська
переклад: професійний дубльований | студія LeDoyen
кодек: 5.1
бітрейт: 1509 кб/с

Аудіо # 3:
мова: англійська
переклад: оригінал
кодек: 5.1
бітрейт: 640 кб/с

Субтитри # 1:
мова: українська (форсовані)
тип: програмні (м'які)
формат: *.srt

Субтитри # 2-4:
мова: англійська (форсовані, повні, SDH)
тип: програмні (м'які)
формат: *.srt
примітка: також присутні окремим файлом для сумісності з деякими пристроями

Збережено оригінальні розділи, як на Blu-Ray
Info
Код:

Complete name               : Avengers. Endgame (2019) [Ukr,Eng sub.Eng] 1080p 3D HalfOU [Hurtom].
Format                      :
Format version              : Version 4
File size                   : 18.7 GiB
Duration                    : 3 h 1 min
Overall bit rate            : 14.8 Mb/s
Movie name                  : Месники: Завершення / Avengers: Endgame (2019) [Ukr,Eng sub.Eng] 1080p 3D HalfOU [Hurtom]
Encoded date                : UTC 2019-08-24 05:22:40
Writing application         : v36.0.0 ('Is That Jazz?') 64-bit
Writing library             : libebml v1.3.9 + v1.5.2
Cover                       : Yes
Attachments                 : cover.jpg

Video
ID                          : 1
Format                      : AVC
Format/Info                 : Advanced Video Codec
Format profile              : [email protected]
Format settings             : CABAC / 4 Ref Frames
Format settings, CABAC      : Yes
Format settings, Reference  : 4 frames
Codec ID                    : V_MPEG4/ISO/AVC
Duration                    : 3 h 1 min
Bit rate                    : 12.0 Mb/s
Width                       : 1 920 pixels
Height                      : 1 080 pixels
Display aspect ratio        : 16:9
Frame rate mode             : Constant
Frame rate                  : 23.976 (24000/1001) FPS
Color space                 : YUV
Chroma subsampling          : 4:2:0
Bit depth                   : 8 bits
Scan type                   : Progressive
Bits/(Pixel*Frame)          : 0.241
Stream size                 : 15.2 GiB (81%)
Title                       : Месники: Завершення / Avengers: Endgame (2019) 1080p 3D [HalfOU] [Ash61]
Writing library             : core 146 r2538 121396c
Encoding settings           : cabac=1 / ref=4 / deblock=1:-3:-3 / analyse=0x3:0x113 / me=umh / subme=10 / psy=1 / psy_rd=1.00:0.00 / mixed_ref=1 / me_range=32 / chroma_me=1 / trellis=2 / 8x8dct=1 / cqm=0 / deadzone=21,11 / fast_pskip=0 / chroma_qp_offset=-2 / threads=12 / lookahead_threads=3 / sliced_threads=0 / nr=0 / decimate=0 / interlaced=0 / bluray_compat=0 / constrained_intra=0 / bframes=10 / b_pyramid=2 / b_adapt=2 / b_bias=0 / direct=3 / weightb=1 / open_gop=0 / weightp=2 / keyint=250 / keyint_min=23 / scenecut=40 / intra_refresh=0 / rc_lookahead=60 / rc=2pass / mbtree=0 / bitrate=12000 / ratetol=1.0 / qcomp=0.70 / qpmin=0 / qpmax=69 / qpstep=4 / cplxblur=20.0 / qblur=0.5 / vbv_maxrate=40000 / vbv_bufsize=30000 / nal_hrd=none / filler=0 / frame-packing=4 / ip_ratio=1.40 / pb_ratio=1.30 / aq=1:0.70
Language                    : English
Default                     : Yes
Forced                      : No

Audio #1
ID                          : 2
Format                      : AC-3
Format/Info                 : Audio Coding 3
Commercial name             : Dolby Digital
Codec ID                    : A_AC3
Duration                    : 3 h 1 min
Bit rate mode               : Constant
Bit rate                    : 640 kb/s
Channel(s)                  : 6 channels
Channel layout              : L R C LFE Ls Rs
Sampling rate               : 48.0 kHz
Frame rate                  : 31.250 FPS (1536 SPF)
Bit depth                   : 16 bits
Compression mode            : Lossy
Stream size                 : 829 MiB (4%)
Title                       : Ukr Dub [LeDoyen] 5.1 640 Kbps [Hurtom]
Language                    : Ukrainian
Service kind                : Complete Main
Default                     : Yes
Forced                      : No

Audio #2
ID                          : 3
Format                      :
Format/Info                 : Digital Theater Systems
Codec ID                    : A_DTS
Duration                    : 3 h 1 min
Bit rate mode               : Constant
Bit rate                    : 1 509 kb/s
Channel(s)                  : 6 channels
Channel layout              : C L R Ls Rs LFE
Sampling rate               : 48.0 kHz
Frame rate                  : 93.750 FPS (512 SPF)
Bit depth                   : 24 bits
Compression mode            : Lossy
Stream size                 : 1.91 GiB (10%)
Title                       : Ukr Dub [LeDoyen] 5.1 1509 Kbps [Hurtom]
Language                    : Ukrainian
Default                     : No
Forced                      : No

Audio #3
ID                          : 4
Format                      : AC-3
Format/Info                 : Audio Coding 3
Commercial name             : Dolby Digital
Codec ID                    : A_AC3
Duration                    : 3 h 1 min
Bit rate mode               : Constant
Bit rate                    : 640 kb/s
Channel(s)                  : 6 channels
Channel layout              : L R C LFE Ls Rs
Sampling rate               : 48.0 kHz
Frame rate                  : 31.250 FPS (1536 SPF)
Bit depth                   : 16 bits
Compression mode            : Lossy
Stream size                 : 829 MiB (4%)
Title                       : Original, 5.1 640 Kbps
Language                    : English
Service kind                : Complete Main
Default                     : No
Forced                      : No

Text #1
ID                          : 5
Format                      : UTF-8
Codec ID                    : S_TEXT/UTF8
Codec ID/Info               : UTF-8 Plain Text
Duration                    : 2 h 46 min
Bit rate                    : 1 b/s
Count of elements           : 46
Stream size                 : 1.78 KiB (0%)
Title                       : Ukr Forced [madagaskar1, igor911]
Language                    : Ukrainian
Default                     : Yes
Forced                      : Yes

Text #2
ID                          : 6
Format                      : UTF-8
Codec ID                    : S_TEXT/UTF8
Codec ID/Info               : UTF-8 Plain Text
Duration                    : 1 min 34 s
Bit rate                    : 21 b/s
Count of elements           : 13
Stream size                 : 257 Bytes (0%)
Title                       : Eng Forced (BD 3D Eur)
Language                    : English
Default                     : No
Forced                      : No

Text #3
ID                          : 7
Format                      : UTF-8
Codec ID                    : S_TEXT/UTF8
Codec ID/Info               : UTF-8 Plain Text
Duration                    : 2 h 47 min
Bit rate                    : 49 b/s
Count of elements           : 2329
Stream size                 : 61.1 KiB (0%)
Title                       : Eng Full
Language                    : English
Default                     : No
Forced                      : No

Text #4
ID                          : 8
Format                      : UTF-8
Codec ID                    : S_TEXT/UTF8
Codec ID/Info               : UTF-8 Plain Text
Duration                    : 3 h 0 min
Bit rate                    : 51 b/s
Count of elements           : 2630
Stream size                 : 68.3 KiB (0%)
Title                       : Eng SDH
Language                    : English
Default                     : No
Forced                      : No

Menu
00:00:00.000                : : 1. One Last Surprise
00:08:05.902                : : 2. "To the Garden"
00:20:01.700                : : 3. Five Years Later
00:26:15.282                : : 4. "A Time Heist"
00:36:57.173                : : 5. "Time Travel Do-Over"
00:43:20.598                : : 6. "I Fixed It"
00:48:44.171                : : 7. Assembling the Avengers
00:57:36.745                : : 8. "Get the Stones, Get Them Back"
01:07:12.612                : : 9. Rogue Transmission
01:16:02.516                : : 10. New York, 2012
01:26:25.430                : : 11. Asgard, 2013
01:32:20.118                : : 12. Morag, 2014
01:38:55.805                : : 13. New Jersey, 1970
01:48:12.361                : : 14. Vormir, 2014
01:57:26.915                : : 15. "I Was Made for This"
02:05:00.243                : : 16. Thanos' Return
02:15:06.432                : : 17. Avengers Assemble
02:25:50.450                : : 18. One of the 14,000,605
02:34:37.935                : : 19. "Part of the Journey Is the End"
02:43:03.899                : : 20. "Clip All the Branches"
02:49:05.344                : : 21. End Credits




Джерело: &
Подяка Hanway'ю за синхронізацію звуку. Ріп від Ash61. Українські форсовані субтитри - madagaskar1, igor911.


 Трекер:    Зареєстрований   

Завантажити / скачати фільм українською



відео для новачків



 Зареєстрований:   2019-08-24 09:29
 Розмір:   18.72 GB 
 Оцінка фільму:   9.2/10 (Голосів: 12)
 ЗАЛИШАЙТЕСЬ ЯКОМОГА ДОВШЕ НА РОЗДАЧІ! ЗАВАНТАЖИВ САМ - ДАЙ ЗАВАНТАЖИТИ ІНШИМ!
   
Anonymous 







2019-08-24 09:30  
Реліз готовий до завантаження.
Al_Kova 
Новенький


З нами з: 05.04.14
Востаннє: 13.09.19
Повідомлень: 5

2019-08-25 12:34  
не підрізано з боків?
Anonymous 







2019-09-01 22:04  
Al_Kova, ні, не підрізано, тут оригінальний AR.
Ваш часовий пояс: GMT + 2 Години

Нова тема   Відповісти