Балада Бастера Скраґґса (Балада про Бастера Скраґґса) / The Ballad of Buster Scruggs (2018)

Нові коментарі

Нова тема   Відповісти
Автор Повідомлення
Anonymous 







2019-08-23 17:09  
Балада Бастера Скраґґса (Балада про Бастера Скраґґса) / The Ballad of Buster Scruggs (2018)

Альтернативний постер:



Проєкт підготовлено за підтримки fishMD


Жанр: драма
Країна: США



Кінокомпанія: Netflix, Annapurna Pictures, Annapurna Television, Mike Zoss Productions
Режисер: Джоел Коен / Joel Coen, Ітан Коен / Ethan Coen
Актори: Тім Блейк Нельсон / Tim Blake Nelson, Віллі Вотсон / Willie Watson, Джеймс Франко / James Franco, Ліам Нісон / Liam Neeson, Том Вейтс / Tom Waits та інші.

Сюжет:
Шість різних глав покажуть вам свою історію зі своєю мораллю. «Балада Бастера Скраґґса» розповість історію про майстерного ковбоя, який влучно стріляє та співає. У главі «В Алґодонес» грабіжник банків потрапляє у дуже скрутне становище. «Талон на їжу» — це похмура історія про двох втомлених артистів, що подорожують. «Золотий каньйон» — це історія про старого, який шукає золото. А «Дівчина, котру налякали» — це історія про те, як жінка знаходить неочікувані любовні зобов'язання, забезпечена неабиякою дозою їдкої життєвої іронії. І, нарешті, шоста глава з назвою «Тлінні рештки» — філософська історія про незнайомців, що прямують до форту Морґан.


Тривалість: 2:13:18
Якість:
Відео:
кодек:
розмір кадру: 704х384
бітрейт: 1948 кб/с

Аудіо # 1:
мова: українська
переклад: багатоголосий закадровий | Озвучка AdrianZP
кодек: 5.1
бітрейт: 384 кб/с
Info
Код:

General
Complete name               : The Ballad of Buster Scruggs (2018) [Ukr] [Hurtom].avi
Format                      : AVI
Format/Info                 : Audio Video Interleave
Format profile              : OpenDML
File size                   : 2.18 GiB
Duration                    : 2 h 13 min
Overall bit rate            : 2 343 kb/s
Movie name                  : Балада Бастера Скраґґса / The Ballad of Buster Scruggs (2018) [Ukr] [Hurtom]
Writing application         : VirtualDubModUkr 1.5.10.2 (build 2542/release)
Writing library             : VirtualDubMod build 2542/release

Video
ID                          : 0
Format                      : MPEG-4 Visual
Format profile              : Advanced [email protected]
Format settings             : BVOP1 / Custom Matrix
Format settings, BVOP       : 1
Format settings, QPel       : No
Format settings, GMC        : No warppoints
Format settings, Matrix     : Custom
Codec ID                    :
Codec ID/Hint               :
Duration                    : 2 h 13 min
Bit rate                    : 1 948 kb/s
Width                       : 720 pixels
Height                      : 384 pixels
Display aspect ratio        : 1.85:1
Frame rate                  : 23.976 (24000/1001) FPS
Color space                 : YUV
Chroma subsampling          : 4:2:0
Bit depth                   : 8 bits
Scan type                   : Progressive
Compression mode            : Lossy
Bits/(Pixel*Frame)          : 0.294
Stream size                 : 1.81 GiB (83%)
Writing library             : 73

Audio
ID                          : 1
Format                      : AC-3
Format/Info                 : Audio Coding 3
Commercial name             : Dolby Digital
Codec ID                    : 2000
Duration                    : 2 h 13 min
Bit rate mode               : Constant
Bit rate                    : 384 kb/s
Channel(s)                  : 6 channels
Channel layout              : L R C LFE Ls Rs
Sampling rate               : 48.0 kHz
Frame rate                  : 31.250 FPS (1536 SPF)
Bit depth                   : 16 bits
Compression mode            : Lossy
Stream size                 : 366 MiB (16%)
Alignment                   : Split across interleaves
Interleave, duration        : 42  ms (1.00 video frame)
Interleave, preload duratio : 500  ms
Title                       : UKR MVO [AdrianZP]
Service kind                : Complete Main



Озвучення виконано:
Переклад: Наталя Плотник
Редагування субтитрів: Dakshina_Kali
Ролі озвучили: Ptaxa, Сафін, Trina_D, Snovyda та AdrianZP
Робота зі звуком: AdrianZP
Постер: Ірина Мак та Юра Драгон

Окрема подяка: Янісу Вермінко за координацію з малювання постера та ImpersonalEvil за альтернативний постер

Джерело: &


Авторський реліз (завантажувати можна без реєстрації)
 Трекер:    Зареєстрований   

Завантажити / скачати фільм українською



відео для новачків



 Зареєстрований:   2019-08-23 17:22
 Розмір:   2.18 GB 
 Оцінка фільму:   9.1/10 (Голосів: 35)
 ЗАЛИШАЙТЕСЬ ЯКОМОГА ДОВШЕ НА РОЗДАЧІ! ЗАВАНТАЖИВ САМ - ДАЙ ЗАВАНТАЖИТИ ІНШИМ!
   
y85m05d06 
Свій


З нами з: 21.08.14
Востаннє: 18.10.19
Повідомлень: 68

2019-09-06 22:29  
ой, ну дуже вже на любителя вийшло кіно, затянуто і нудно, 5 з 10 не більше
Argmsly 
Новенький


З нами з: 25.07.15
Востаннє: 18.10.19
Повідомлень: 1

2019-09-07 04:39  
... хто ті люди які пишуть такі коменти? діти ?! це кіно суцільний мем! Нудне?77 Ну, для шанувальників форсажу - мабуть, але для людей, хто любить гарне кіно , саме те що треба.
merlinker 
Попереджень: 1
Попереджень: 1 


З нами з: 03.04.11
Востаннє: 18.10.19
Повідомлень: 73

2019-10-04 22:04  
Однозначно ВАРТЕ перегляду!
Вже місяць кілька сцен стають перед очима. Як з дитячих казок. Дуже справляє враження!

Ваш часовий пояс: GMT + 2 Години

Нова тема   Відповісти