Війна на нульовому кілометрі (2016) 1080p

Нові коментарі

Нова тема   Відповісти
Автор Повідомлення
sergiyko.5 
VIP


З нами з: 25.02.16
Востаннє: 28.10.20
Повідомлень: 3638

2019-08-23 11:35  
Війна на нульовому кілометрі (2016) 1080p

Війна на нульовому кілометрі (2016) 1080p

Жанр: документальний, драма
Країна: Україна
Телеканал / кіностудія: Фор-Пост
Режисер: Василь Рибальченко

Сюжет:
В основу фільму лягли історії прикордонників, які в перший період російської агресії (травень-вересень 2014 року) у складі підрозділів Держприкордонслужби героїчно відстоювали територіальну цілісність України. Режисер фільму Василь Рибальченко зазначив, що жанр фільму визначити важко, він є гібридним, адже складається з художньої та хронікальної частин, і фактично є докудрамою. Стрічка побудована за новельним принципом, з реконструкціями тих подій, зняти які в умовах реальної війни було фізично неможливо. Особливість цього фільму, за словами творців, у тому, що у ньому не знялося жодного професійного актора, всі герої є справжніми військовими прикордонниками, у яких під час зйомок картини відкрилися унікальні артистичні здібності.

Тривалість: 00:53:56
Якість:

Відео: кодек: розмір кадру: 1920 х 1080 бітрейт: 3900 кб/с
Аудіо: мова: українська переклад: оригінал, закадровий переклад кодек: 2.0 бітрейт: 256 кб/с
Субтитри: мова: українська тип: вбудовані (жорсткі)
Про файл:
General
Unique ID : 333545007384007335412901750710162325636 (0xFAEE6E874F73539D3AAF47EB227E8084)
Complete name : D:\Documents\Torrents\FILM\Війна на нульовому кілометрі.2016.1080p..
Format :
Format version : Version 4
File size : 1.57 GiB
Duration : 53 min 55 s
Overall bit rate mode : Variable
Overall bit rate : 4 165 kb/s
Movie name : Війна на нульовому кілометрі 2016 by sergiyko
Encoded date : UTC 2019-08-23 09:29:56
Writing application : v36.0.0 ('Is That Jazz?') 64-bit
Writing library : libebml v1.3.9 + v1.5.2

Video
ID : 1
Format : AVC
Format/Info : Advanced Video Codec
Format profile : [email protected]
Format settings : CABAC / 3 Ref Frames
Format settings, CABAC : Yes
Format settings, Reference fra : 3 frames
Codec ID : V_MPEG4/ISO/AVC
Duration : 53 min 55 s
Bit rate mode : Variable
Bit rate : 3 907 kb/s
Maximum bit rate : 4 799 kb/s
Width : 1 920 pixels
Height : 1 080 pixels
Display aspect ratio : 16:9
Frame rate mode : Constant
Frame rate : 25.000 FPS
Color space : YUV
Chroma subsampling : 4:2:0
Bit depth : 8 bits
Scan type : Progressive
Bits/(Pixel*Frame) : 0.075
Stream size : 1.47 GiB (94%)
Title : Війна на нульовому кілометрі 2016
Language : Ukrainian
Default : Yes
Forced : No

Audio
ID : 2
Format : LC
Format/Info : Advanced Audio Codec Low Complexity
Codec ID : A_AAC-2
Duration : 53 min 55 s
Bit rate : 255 kb/s
Channel(s) : 2 channels
Channel layout : L R
Sampling rate : 44.1 kHz
Frame rate : 43.066 FPS (1024 SPF)
Compression mode : Lossy
Stream size : 98.5 MiB (6%)
Title : Українська
Language : Ukrainian
Default : Yes
Forced : No
Скріншоти:


Золотий реліз (завантажене не впливає на рейтинг)
 Трекер:    Зареєстрований   

Завантажити / скачати фільм українською



відео для новачків



 Зареєстрований:   2019-08-23 11:35
 Розмір:   1.57 GB 
 Оцінка фільму:   10/10 (Голосів: 25)
   
VasiliRybalchenko 
Новенький


З нами з: 02.03.20
Востаннє: 26.10.20
Повідомлень: 1

2020-06-14 17:00  
Класне кіно
Ваш часовий пояс: GMT + 2 Години

Нова тема   Відповісти