Тристан і Ізольда / Tristan + Isolde (2006) AVC Ukr/Eng | Sub Eng

Нові коментарі

Нова тема   Відповісти
Автор Повідомлення
Anonymous 







2019-08-23 10:37  
Тристан і Ізольда / Tristan + Isolde (2006) AVC Ukr/Eng | Sub Eng

Тристан і Ізольда / Tristan + Isolde (2006) AVC Ukr/Eng | Sub Eng


Жанр: мелодрама, драма, бойовик, історичний
Країна: США, Велика Британія, Німеччина, Чехія



Кінокомпанія: ApolloProMedia, Epsilon Motion Pictures, Franchise Pictures
Режисер: Кевін Рейнольдс / Kevin Reynolds
Актори: Джеймс Франко / James Franco, Софія Майлз / Sophia Myles, Руфус Сьюелл / Rufus Sewell, Девід О'Хара / David O'Hara, Генрі Кавілл / Henry Cavill, Річард Діллейн / Richard Dillane, Марк Стронг / Mark Strong та інші.

Сюжет:
Історія кохання британського воїна Тристана та ірландської принцеси Ізольди. Дія розгортається незабаром після падіння Римської імперії. Осиротілий в дитинстві, Тристан був вихований другом його сім'ї лордом Марком. Подорослішавши, Тристан стає хоробрим лицарем, який успішно бореться з армією ірландського короля. Ледь не загинувши в одній з битв, Тристан випадково опиняється біля ірландської берегів, де його знаходить, а потім і зцілює дочка короля Ізольда.

Між молодими людьми, які ще нічого не знають один про одного, незабаром зароджується справжня любов. Повернувшись додому, Тристан дізнається, що ірландський король вирішив видати свою дочку заміж за одного з британських лордів нібито для того, щоб об'єднати ці держави. Майбутнім чоловіком Ізольди повинен стати переможець турніру. Захищаючи честь лорда Марка, Тристан перемагає в змаганні. І тільки після цього він дізнається, що його кохана Ізольда і є та сама ірландська принцеса, яка тепер повинна дістатися його кращому другу ...
Оригінальний трейлер:

Рейтинг MPAA: PG-13 - дітям до 13 років перегляд не бажаний
Вікова категорія: 12+
Тривалість: 2:05:12
Якість: 720p
Відео:
кодек:
розмір кадру: 1024х576
бітрейт: 3500 кб/с

Аудіо # 1:
мова: українська
переклад: двоголосий закадровий
ролі озвучили: чоловічі ролі озвучив Юрій Ребрик
кодек: 2.0 (з 5.1)
бітрейт: 192 кб/с

Аудіо # 2:
мова: англійська
переклад: оригінал
кодек: 5.1
бітрейт: 448 кб/с

Субтитри:
мова: англійська
тип: програмні (м'які)
формат: *.srt

Збережено оригінальні розділи, як на Blu-ray
Info та log
Код:

Complete name               : Tristan + Isolde (2006) [Ukr,Eng sub.Eng] AVC [Hurtom].
Format                      :
Format version              : Version 4
File size                   : 3.62 GiB
Duration                    : 2 h 5 min
Overall bit rate            : 4 141 kb/s
Movie name                  : Тристан і Ізольда / Tristan + Isolde (2006) [Ukr,Eng sub.Eng] AVC [Hurtom]
Encoded date                : UTC 2019-08-23 11:13:16
Writing application         : v36.0.0 ('Is That Jazz?') 64-bit
Writing library             : libebml v1.3.9 + v1.5.2
Cover                       : Yes
Attachments                 : cover.jpg

Video
ID                          : 1
Format                      : AVC
Format/Info                 : Advanced Video Codec
Format profile              : [email protected]
Format settings             : CABAC / 9 Ref Frames
Format settings, CABAC      : Yes
Format settings, Reference  : 9 frames
Codec ID                    : V_MPEG4/ISO/AVC
Duration                    : 2 h 5 min
Bit rate                    : 3 500 kb/s
Width                       : 1 024 pixels
Height                      : 576 pixels
Display aspect ratio        : 16:9
Frame rate mode             : Constant
Frame rate                  : 23.976 (24000/1001) FPS
Color space                 : YUV
Chroma subsampling          : 4:2:0
Bit depth                   : 8 bits
Scan type                   : Progressive
Bits/(Pixel*Frame)          : 0.247
Stream size                 : 3.06 GiB (84%)
Title                       : Тристан і Ізольда / Tristan + Isolde (2006) AVC [CARTER_tRuAVC]
Writing library             : core 110 r1820 fdcf2ae
Encoding settings           : cabac=1 / ref=9 / deblock=1:-3:-2 / analyse=0x3:0x133 / me=umh / subme=10 / psy=1 / psy_rd=1.00:0.10 / mixed_ref=1 / me_range=32 / chroma_me=1 / trellis=2 / 8x8dct=1 / cqm=0 / deadzone=21,11 / fast_pskip=0 / chroma_qp_offset=-3 / threads=6 / sliced_threads=0 / nr=0 / decimate=0 / interlaced=0 / constrained_intra=0 / bframes=8 / b_pyramid=2 / b_adapt=2 / b_bias=0 / direct=3 / weightb=1 / open_gop=0 / weightp=2 / keyint=250 / keyint_min=23 / scenecut=40 / intra_refresh=0 / rc=2pass / mbtree=0 / bitrate=3500 / ratetol=1.0 / qcomp=0.60 / qpmin=0 / qpmax=51 / qpstep=4 / cplxblur=20.0 / qblur=0.5 / ip_ratio=1.20 / pb_ratio=1.30 / aq=1:0.90
Language                    : English
Default                     : Yes
Forced                      : No
Color range                 : Limited
Matrix coefficients         : BT.709

Audio #1
ID                          : 2
Format                      : AC-3
Format/Info                 : Audio Coding 3
Commercial name             : Dolby Digital
Codec ID                    : A_AC3
Duration                    : 2 h 5 min
Bit rate mode               : Constant
Bit rate                    : 192 kb/s
Channel(s)                  : 2 channels
Channel layout              : L R
Sampling rate               : 48.0 kHz
Frame rate                  : 31.250 FPS (1536 SPF)
Bit depth                   : 16 bits
Compression mode            : Lossy
Stream size                 : 172 MiB (5%)
Title                       : DVO [Novyj], 2.0 192 Kbps
Language                    : Ukrainian
Service kind                : Complete Main
Default                     : Yes
Forced                      : No

Audio #2
ID                          : 3
Format                      : AC-3
Format/Info                 : Audio Coding 3
Commercial name             : Dolby Digital
Codec ID                    : A_AC3
Duration                    : 2 h 5 min
Bit rate mode               : Constant
Bit rate                    : 448 kb/s
Channel(s)                  : 6 channels
Channel layout              : L R C LFE Ls Rs
Sampling rate               : 48.0 kHz
Frame rate                  : 31.250 FPS (1536 SPF)
Bit depth                   : 16 bits
Compression mode            : Lossy
Stream size                 : 401 MiB (11%)
Title                       : Original, 5.1 448 Kbps
Language                    : English
Service kind                : Complete Main
Default                     : No
Forced                      : No

Text
ID                          : 4
Format                      : UTF-8
Codec ID                    : S_TEXT/UTF8
Codec ID/Info               : UTF-8 Plain Text
Duration                    : 1 h 55 min
Bit rate                    : 35 b/s
Count of elements           : 1058
Stream size                 : 30.3 KiB (0%)
Title                       : Eng
Language                    : English
Default                     : No
Forced                      : No

Menu
00:00:00.000                : en:Chapter 1
00:04:09.749                : en:Chapter 2
00:08:55.826                : en:Chapter 3
00:12:58.652                : en:Chapter 4
00:17:39.016                : en:Chapter 5
00:22:15.584                : en:Chapter 6
00:27:02.871                : en:Chapter 7
00:31:53.870                : en:Chapter 8
00:35:04.227                : en:Chapter 9
00:39:49.595                : en:Chapter 10
00:44:05.142                : en:Chapter 11
00:48:10.971                : en:Chapter 12
00:51:58.240                : en:Chapter 13
00:56:58.540                : en:Chapter 14
01:01:53.876                : en:Chapter 15
01:06:32.488                : en:Chapter 16
01:10:17.463                : en:Chapter 17
01:12:09.033                : en:Chapter 18
01:17:07.289                : en:Chapter 19
01:21:58.705                : en:Chapter 20
01:26:52.707                : en:Chapter 21
01:31:41.412                : en:Chapter 22
01:36:40.544                : en:Chapter 23
01:41:40.052                : en:Chapter 24
01:46:31.218                : en:Chapter 25
01:50:53.146                : en:Chapter 26
01:54:34.409                : en:Chapter 27
01:57:56.569                : en:Chapter 28


Код:
avs [info]: 1024x576p 1:1 @ 24000/1001 fps (cfr)
[info]: using SAR=1/1
[info]: using cpu capabilities: MMX2 SSE2Fast FastShuffle SSEMisalign LZCNT
[info]: profile High, level 4.0
[info]: frame I:1808  Avg QP:16.03  size: 80158  PSNR Mean Y:47.02 U:52.46 V:53.95 Avg:48.17 Global:47.43
[info]: frame P:39145 Avg QP:17.81  size: 36134  PSNR Mean Y:45.62 U:53.35 V:54.64 Avg:46.89 Global:45.68
[info]: frame B:139165 Avg QP:20.25  size: 12403  PSNR Mean Y:44.07 U:52.92 V:54.29 Avg:45.43 Global:44.50
[info]: consecutive B-frames:  1.2%  2.4%  9.4% 20.6% 14.0% 44.6%  4.0%  1.7%  2.0%
[info]: mb I  I16..4: 14.4% 66.7% 18.9%
[info]: mb P  I16..4:  2.0% 20.3%  2.0%  P16..4: 38.4% 25.2%  5.9%  0.5%  0.4%    skip: 5.3%
[info]: mb B  I16..4:  0.1%  1.4%  0.2%  B16..8: 36.8% 13.2%  3.8%  direct: 9.6%  skip:34.8%  L0:41.4% L1:43.1% BI:15.5%
[info]: 8x8 transform intra:80.7% inter:56.2%
[info]: direct mvs  spatial:98.6% temporal:1.4%
[info]: coded y,uvDC,uvAC intra: 91.5% 67.5% 39.2% inter: 35.4% 15.7% 4.7%
[info]: i16 v,h,dc,p: 38%  9% 20% 33%
[info]: i8 v,h,dc,ddl,ddr,vr,hd,vl,hu: 10%  9% 11%  9% 12% 12% 12% 11% 13%
[info]: i4 v,h,dc,ddl,ddr,vr,hd,vl,hu:  9%  8%  5%  9% 15% 14% 14% 12% 14%
[info]: i8c dc,h,v,p: 46% 25% 18% 11%
[info]: Weighted P-Frames: Y:15.3% UV:7.4%
[info]: ref P L0: 47.4%  9.2% 16.2%  8.3%  6.0%  4.6%  3.7%  2.4%  1.8%  0.4%  0.0%
[info]: ref B L0: 72.6% 13.5%  5.9%  3.1%  2.2%  1.6%  0.9%  0.3%
[info]: ref B L1: 93.3%  6.7%
[info]: SSIM Mean Y:0.9773287 (16.445db)
[info]: PSNR Mean Y:44.433 U:53.005 V:54.359 Avg:45.774 Global:44.751 kb/s:3498.66
encoded 180118 frames, 3.35 fps, 3498.66 kb/s
Скріншоти


Джерело: &
Подяки за українську доріжку: ua2004, rostik_neo, Givi. Постер: Ermolenko.



 Трекер:    Зареєстрований   

Завантажити / скачати фільм українською



відео для новачків



 Зареєстрований:   2019-08-23 15:38
 Розмір:   3.62 GB 
 Оцінка фільму:   9.8/10 (Голосів: 12)
 ЗАЛИШАЙТЕСЬ ЯКОМОГА ДОВШЕ НА РОЗДАЧІ! ЗАВАНТАЖИВ САМ - ДАЙ ЗАВАНТАЖИТИ ІНШИМ!
   
bot 
робот


З нами з: 30.09.07
Востаннє: 26.05.05
Повідомлень: 22323

2019-08-23 15:38  
Тему перенесено з Анонси релізів до форуму Фільми


igor911

sansaclip-r 
Свій


З нами з: 25.12.08
Востаннє: 24.08.19
Повідомлень: 69

2019-08-24 13:57  
Книжки не читав, але перегляну.
Ваш часовий пояс: GMT + 2 Години

Нова тема   Відповісти