Тристан і Ізольда / Tristan + Isolde (2006) 720p Ukr/Eng | Sub Eng

Нові коментарі

Нова тема   Відповісти
Автор Повідомлення
Anonymous 







2019-08-23 10:33  
Тристан і Ізольда / Tristan + Isolde (2006) 720p Ukr/Eng | Sub Eng

Тристан і Ізольда / Tristan + Isolde (2006) 720p Ukr/Eng | Sub Eng


Жанр: мелодрама, драма, бойовик, історичний
Країна: США, Велика Британія, Німеччина, Чехія



Кінокомпанія: ApolloProMedia, Epsilon Motion Pictures, Franchise Pictures
Режисер: Кевін Рейнольдс / Kevin Reynolds
Актори: Джеймс Франко / James Franco, Софія Майлз / Sophia Myles, Руфус Сьюелл / Rufus Sewell, Девід О'Хара / David O'Hara, Генрі Кавілл / Henry Cavill, Річард Діллейн / Richard Dillane, Марк Стронг / Mark Strong та інші.

Сюжет:
Історія кохання британського воїна Тристана та ірландської принцеси Ізольди. Дія розгортається незабаром після падіння Римської імперії. Осиротілий в дитинстві, Тристан був вихований другом його сім'ї лордом Марком. Подорослішавши, Тристан стає хоробрим лицарем, який успішно бореться з армією ірландського короля. Ледь не загинувши в одній з битв, Тристан випадково опиняється біля ірландської берегів, де його знаходить, а потім і зцілює дочка короля Ізольда.

Між молодими людьми, які ще нічого не знають один про одного, незабаром зароджується справжня любов. Повернувшись додому, Тристан дізнається, що ірландський король вирішив видати свою дочку заміж за одного з британських лордів нібито для того, щоб об'єднати ці держави. Майбутнім чоловіком Ізольди повинен стати переможець турніру. Захищаючи честь лорда Марка, Тристан перемагає в змаганні. І тільки після цього він дізнається, що його кохана Ізольда і є та сама ірландська принцеса, яка тепер повинна дістатися його кращому другу ...
Оригінальний трейлер:

Рейтинг MPAA: PG-13 - дітям до 13 років перегляд не бажаний
Вікова категорія: 12+
Тривалість: 2:05:12
Якість: 720p
Відео:
кодек:
розмір кадру: 1280х720
бітрейт: 6900 кб/с

Аудіо # 1:
мова: українська
переклад: двоголосий закадровий
ролі озвучили: чоловічі ролі озвучив Юрій Ребрик
кодек: 2.0 (з 5.1)
бітрейт: 192 кб/с

Аудіо # 2:
мова: англійська
переклад: оригінал
кодек: 5.1
бітрейт: 640 кб/с

Аудіо # 3:
мова: англійська
переклад: коментарі продюсерів Jim Lemley та Anne Lai
кодек: 2.0
бітрейт: 192 кб/с

Аудіо # 4:
мова: англійська
переклад: коментарі автора сценарію (Dean Georgaris)
кодек: 2.0
бітрейт: 192 кб/с

Субтитри # 1-3:
мова: англійська (повні / до коментарів #1 / до коментарів #2)
тип: програмні (м'які)
формат: *.srt

Збережено оригінальні розділи, як на Blu-ray
Info та log
Код:

Complete name               : Tristan + Isolde (2006) [Ukr,Eng sub.Eng] 720p [Hurtom].
Format                      :
Format version              : Version 4
File size                   : 7.10 GiB
Duration                    : 2 h 5 min
Overall bit rate            : 8 117 kb/s
Movie name                  : Тристан і Ізольда / Tristan + Isolde (2006) [Ukr,Eng sub.Eng] 720p [Hurtom]
Encoded date                : UTC 2019-08-23 05:29:17
Writing application         : v36.0.0 ('Is That Jazz?') 64-bit
Writing library             : libebml v1.3.9 + v1.5.2
Cover                       : Yes
Attachments                 : cover.jpg

Video
ID                          : 1
Format                      : AVC
Format/Info                 : Advanced Video Codec
Format profile              : [email protected]
Format settings             : CABAC / 8 Ref Frames
Format settings, CABAC      : Yes
Format settings, Reference  : 8 frames
Codec ID                    : V_MPEG4/ISO/AVC
Duration                    : 2 h 5 min
Bit rate                    : 6 900 kb/s
Width                       : 1 280 pixels
Height                      : 720 pixels
Display aspect ratio        : 16:9
Frame rate mode             : Constant
Frame rate                  : 23.976 (24000/1001) FPS
Color space                 : YUV
Chroma subsampling          : 4:2:0
Bit depth                   : 8 bits
Scan type                   : Progressive
Bits/(Pixel*Frame)          : 0.312
Stream size                 : 6.03 GiB (85%)
Title                       : Тристан і Ізольда / Tristan + Isolde (2006) 720p [CARTER_tRuAVC]
Writing library             : core 110 r1820 fdcf2ae
Encoding settings           : cabac=1 / ref=8 / deblock=1:-2:-2 / analyse=0x3:0x113 / me=umh / subme=10 / psy=1 / psy_rd=1.00:0.10 / mixed_ref=1 / me_range=36 / chroma_me=1 / trellis=2 / 8x8dct=1 / cqm=0 / deadzone=21,11 / fast_pskip=0 / chroma_qp_offset=-3 / threads=6 / sliced_threads=0 / nr=0 / decimate=0 / interlaced=0 / constrained_intra=0 / bframes=8 / b_pyramid=2 / b_adapt=2 / b_bias=0 / direct=3 / weightb=1 / open_gop=0 / weightp=2 / keyint=250 / keyint_min=23 / scenecut=40 / intra_refresh=0 / rc_lookahead=40 / rc=2pass / mbtree=0 / bitrate=6900 / ratetol=1.0 / qcomp=0.60 / qpmin=0 / qpmax=51 / qpstep=4 / cplxblur=20.0 / qblur=0.5 / vbv_maxrate=50000 / vbv_bufsize=62500 / ip_ratio=1.20 / pb_ratio=1.30 / aq=1:0.92 / nal_hrd=none
Language                    : English
Default                     : Yes
Forced                      : No
Color range                 : Limited
Matrix coefficients         : BT.709

Audio #1
ID                          : 2
Format                      : AC-3
Format/Info                 : Audio Coding 3
Commercial name             : Dolby Digital
Codec ID                    : A_AC3
Duration                    : 2 h 5 min
Bit rate mode               : Constant
Bit rate                    : 192 kb/s
Channel(s)                  : 2 channels
Channel layout              : L R
Sampling rate               : 48.0 kHz
Frame rate                  : 31.250 FPS (1536 SPF)
Bit depth                   : 16 bits
Compression mode            : Lossy
Stream size                 : 172 MiB (2%)
Title                       : DVO [Novyj], 2.0 192 Kbps
Language                    : Ukrainian
Service kind                : Complete Main
Default                     : Yes
Forced                      : No

Audio #2
ID                          : 3
Format                      : AC-3
Format/Info                 : Audio Coding 3
Commercial name             : Dolby Digital
Codec ID                    : A_AC3
Duration                    : 2 h 5 min
Bit rate mode               : Constant
Bit rate                    : 640 kb/s
Channel(s)                  : 6 channels
Channel layout              : L R C LFE Ls Rs
Sampling rate               : 48.0 kHz
Frame rate                  : 31.250 FPS (1536 SPF)
Bit depth                   : 16 bits
Compression mode            : Lossy
Stream size                 : 573 MiB (8%)
Title                       : Original, 5.1 640 Kbps
Language                    : English
Service kind                : Complete Main
Default                     : No
Forced                      : No

Audio #3
ID                          : 4
Format                      : AC-3
Format/Info                 : Audio Coding 3
Commercial name             : Dolby Digital
Codec ID                    : A_AC3
Duration                    : 2 h 5 min
Bit rate mode               : Constant
Bit rate                    : 192 kb/s
Channel(s)                  : 2 channels
Channel layout              : L R
Sampling rate               : 48.0 kHz
Frame rate                  : 31.250 FPS (1536 SPF)
Bit depth                   : 16 bits
Compression mode            : Lossy
Stream size                 : 172 MiB (2%)
Title                       : Commentary by Executive Producer Jim Lemley and Co-Producer Anne Lai
Language                    : English
Service kind                : Complete Main
Default                     : No
Forced                      : No

Audio #4
ID                          : 5
Format                      : AC-3
Format/Info                 : Audio Coding 3
Commercial name             : Dolby Digital
Codec ID                    : A_AC3
Duration                    : 2 h 5 min
Bit rate mode               : Constant
Bit rate                    : 192 kb/s
Channel(s)                  : 2 channels
Channel layout              : L R
Sampling rate               : 48.0 kHz
Frame rate                  : 31.250 FPS (1536 SPF)
Bit depth                   : 16 bits
Compression mode            : Lossy
Stream size                 : 172 MiB (2%)
Title                       : Commentary by Writer Dean Georgaris
Language                    : English
Service kind                : Complete Main
Default                     : No
Forced                      : No

Text #1
ID                          : 6
Format                      : UTF-8
Codec ID                    : S_TEXT/UTF8
Codec ID/Info               : UTF-8 Plain Text
Duration                    : 1 h 55 min
Bit rate                    : 35 b/s
Count of elements           : 1058
Stream size                 : 30.3 KiB (0%)
Title                       : Eng Full
Language                    : English
Default                     : No
Forced                      : No

Text #2
ID                          : 7
Format                      : UTF-8
Codec ID                    : S_TEXT/UTF8
Codec ID/Info               : UTF-8 Plain Text
Duration                    : 1 h 58 min
Bit rate                    : 107 b/s
Count of elements           : 2002
Stream size                 : 93.1 KiB (0%)
Title                       : Eng Commentary by Executive Producer Jim Lemley and Co-Producer Anne Lai
Language                    : English
Default                     : No
Forced                      : No

Text #3
ID                          : 8
Format                      : UTF-8
Codec ID                    : S_TEXT/UTF8
Codec ID/Info               : UTF-8 Plain Text
Duration                    : 1 h 59 min
Bit rate                    : 98 b/s
Count of elements           : 1755
Stream size                 : 85.8 KiB (0%)
Title                       : Eng Commentary by Writer Dean Georgaris
Language                    : English
Default                     : No
Forced                      : No

Menu
00:00:00.000                : en:Chapter 1
00:04:09.749                : en:Chapter 2
00:08:55.826                : en:Chapter 3
00:12:58.652                : en:Chapter 4
00:17:39.016                : en:Chapter 5
00:22:15.584                : en:Chapter 6
00:27:02.871                : en:Chapter 7
00:31:53.870                : en:Chapter 8
00:35:04.227                : en:Chapter 9
00:39:49.595                : en:Chapter 10
00:44:05.142                : en:Chapter 11
00:48:10.971                : en:Chapter 12
00:51:58.240                : en:Chapter 13
00:56:58.540                : en:Chapter 14
01:01:53.876                : en:Chapter 15
01:06:32.488                : en:Chapter 16
01:10:17.463                : en:Chapter 17
01:12:09.033                : en:Chapter 18
01:17:07.289                : en:Chapter 19
01:21:58.705                : en:Chapter 20
01:26:52.707                : en:Chapter 21
01:31:41.412                : en:Chapter 22
01:36:40.544                : en:Chapter 23
01:41:40.052                : en:Chapter 24
01:46:31.218                : en:Chapter 25
01:50:53.146                : en:Chapter 26
01:54:34.409                : en:Chapter 27
01:57:56.569                : en:Chapter 28


Код:
avs [info]: 1280x720p 1:1 @ 24000/1001 fps (cfr)
[info]: using SAR=1/1
using cpu capabilities: MMX2 SSE2Fast FastShuffle SSEMisalign LZCNT
[info]: profile High, level 4.1
[info]: frame I:1718  Avg QP:15.12  size:127906  PSNR Mean Y:48.08 U:53.46 V:55.06 Avg:49.23 Global:48.52
[info]: frame P:37995 Avg QP:17.81  size: 56856  PSNR Mean Y:45.97 U:53.92 V:55.34 Avg:47.27 Global:46.00
[info]: frame B:140405 Avg QP:18.86  size: 29182  PSNR Mean Y:44.77 U:53.20 V:54.71 Avg:46.11 Global:45.20
[info]: consecutive B-frames:  1.0%  2.1%  9.3% 17.1% 10.7% 54.3%  3.0%  1.3%  1.4%
[info]: mb I  I16..4: 14.4% 67.1% 18.5%
[info]: mb P  I16..4:  2.1% 26.3%  1.9%  P16..4: 30.6% 22.8% 10.5%  0.0%  0.0%    skip: 5.7%
[info]: mb B  I16..4:  0.2%  4.1%  0.3%  B16..8: 34.5% 15.2%  4.6%  direct:15.3%  skip:25.9%  L0:41.0% L1:40.9% BI:18.2%
[info]: 8x8 transform intra:85.7% inter:55.7%
[info]: direct mvs  spatial:99.0% temporal:1.0%
[info]: coded y,uvDC,uvAC intra: 93.6% 69.3% 37.2% inter: 46.1% 23.4% 4.3%
[info]: i16 v,h,dc,p: 37%  9% 20% 34%
[info]: i8 v,h,dc,ddl,ddr,vr,hd,vl,hu: 11% 10% 13%  8% 11% 11% 11% 11% 13%
[info]: i4 v,h,dc,ddl,ddr,vr,hd,vl,hu: 11%  9%  5%  9% 15% 14% 14% 11% 13%
[info]: i8c dc,h,v,p: 45% 26% 17% 11%
[info]: Weighted P-Frames: Y:6.1% UV:3.2%
[info]: ref P L0: 50.5%  8.4% 16.2%  8.2%  6.0%  4.6%  3.6%  2.2%  0.3%  0.0%
[info]: ref B L0: 74.7% 13.1%  5.7%  3.0%  2.1%  1.1%  0.4%
[info]: ref B L1: 93.6%  6.4%
[info]: SSIM Mean Y:0.9791755 (16.814db)
[info]: PSNR Mean Y:45.053 U:53.358 V:54.846 Avg:46.386 Global:45.383 kb/s:6897.64
encoded 180118 frames, 2.14 fps, 6897.64 kb/s
Скріншоти


Джерело: &
Подяки за українську доріжку: ua2004, rostik_neo, Givi. Постер: Ermolenko.



 Трекер:    Зареєстрований   

Завантажити / скачати фільм українською



відео для новачків



 Зареєстрований:   2019-08-23 10:33
 Розмір:   7.1 GB 
 Оцінка фільму:   7.8/10 (Голосів: 4)
 ЗАЛИШАЙТЕСЬ ЯКОМОГА ДОВШЕ НА РОЗДАЧІ! ЗАВАНТАЖИВ САМ - ДАЙ ЗАВАНТАЖИТИ ІНШИМ!
   
Ваш часовий пояс: GMT + 2 Години

Нова тема   Відповісти