Смертельна зброя 4 / Lethal Weapon 4 (1998) Remux 1080p [Remastered] 2хUkr/Eng | Sub Eng

Нові коментарі

Нова тема   Відповісти
Автор Повідомлення
MakRA 
VIP


З нами з: 10.11.18
Востаннє: 14.11.19
Повідомлень: 502

2019-08-22 10:19  
Смертельна зброя 4 / Lethal Weapon 4 (1998) Remux 1080p [Remastered] 2хUkr/Eng | Sub Eng


Український постер:

Альтернативні постери:




Жанр: екшн, кримінальний, трилер
Країна: США



Кінокомпанія: Warner Bros., Silver Pictures, Donner/Shuler-Donner Productions
Режисер: Річард Доннер [Richard Donner]
Актори: Мел Гібсон [Mel Gibson], Денні Гловер [Danny Glover], Джо Пеші [Joe Pesci], Рене Руссо [Rene Russo], Кріс Рок [Chris Rock], Джет Лі [Jet Li], Стів Кехен [Steve Kahan], Кім Чан [Kim Chan], Дарлен Лав [Darlene Love], Трейсі Вульф [Traci Wolfe].

Сюжет:
Головний герой Ріггз чекає, як він сподівається, сина від Лорни Коул, а Роджер - онука. Обидва вже відчувають вік, їм дали звання капітанів, але серця їх усе ще молоді і без пригод не можуть. У цьому 4-му за рахунком фільмі їх доріжки випадково перетнулися з китайськими мафіозі, що друкують фальшиві гроші. У фільмі є гумор, безліч перестрілок, бійок, погонь, запаморочливих трюків. Вибухають бензовози, машини, кораблі сідають на мілину, Джет Лі показує свою майстерність у східних єдиноборствах...
Цікаві факти:

-Роль Джета Лі спершу пропонували Джекі Чану, але він відмовився, оскільки не бажав грати негативного героя.
-У сцені, де Ріггз та Мерта вітають один одного з підвищенням, вони кілька разів тиснуть один одному руки та віддають честь. Точно така ж сцена присутня у «Вічно молодому» (1992) між Мелом Гібсоном та Джорджем Вендтом.
-Кім Чан зіграв персонажа на ім'я «дядько Бенні». Так само звали його героя у «Корупціонері» (1999).
-В усіх частинах «Смертельної зброї» зіграли наступні актори: Мел Гібсон (Ріггз); Денні Гловер (Мерта); Дарлін Лав (дружина Мерти); Трейсі Вульф, Деймон Хайнс та Ебоні Сміт виконували ролі дітей Мерти; Стів Кехен (капітан Мерфі); Марі Еллен Трейнор (доктор Вудс).
-Пол Тюрп зіграв в усіх частинах «Смертельної зброї», але завжди з'являвся у різних ролях. Він зіграв найманця в першій частині, вбивцю у другій, помічника № 3 у третій, та пілота гвинтокрила у четвертому фільмі.
-Автомобільна погоня на шосе та бійка між Ріггзом та китайцем знімалася на шосе 215 у Лас-Вегасі.
-Зйомки фільму почались у січні, за сім місяців до прем'єри. Монтаж фільму зайняв близько трьох тижнів.
-Трейлер Ріггза знаходиться у тому ж місці, що і трейлер Джима Рокфорда у «The Rockford Files» (1974).
-Коли почалися зйомки, сценарій фільму ще не був дописаний.
-Фраза Роджера Мерти (Денні Гловер) «Я застарий для цього лайна!» промовляється в кожній частині «Смертельної зброї». Тільки в цьому фільмі її говорить Ріггз у дещо зміненому варіанті: «Ми не застарі для цього лайна!».
-У телевізійних роликах, що рекламували фільм, Кріс Рок носив поліцейську форму та пародіював Ріггза. У фільмі ми жодного разу не бачимо його в поліцейській формі. Але на фінальних титрах на одній із фотографій можна побачити Кріса, одягненого у форму.
-Кількість убитих: 30.
Премії, нагороди та номінації:

-Премія «Bogey Award» у 1998 році в категорії «Найкращий фільм» (Warner Bros. Filmverleih (distributor)).
-4 номінації на премію каналу «MTV» у 1999 році: «Найкраща комедійна роль» (Кріс Рок), «Чоловічий прорив року» (Кріс Рок), «Найкраща екшн-сцена» (Мел Гібсон та Денні Гловер), «Найкращий лиходій» (Джет Лі).
-Номінація на премію «American Comedy Award» у 1999 році в категорії «Найкращий комедійний актор» (Кріс Рок).
-Премія «BMI Film Music Award» у 1999 році в категорії «Найкраща музика до фільму» (Майкл Кеймен).
-2 премії «Blockbuster Entertainment Award» у 1999 році: «Найкращий актор другого плану» (Кріс Рок), «Найкраща акторка другого плану» (Рене Руссо).
-2 номінації на премію «Blockbuster Entertainment Award» у 1999 році: «Найкращий екранний дует» (Мел Гібсон та Денні Гловер), «Найкращий актор другого плану» (Джо Пеші).
-Номінація на премію «Image Award» у 1999 році в категорії «Найкращий комедійний актор» (Кріс Рок).
-Номінація на премію «Golden Reel Award» у 1999 році в категорії «Найкращий монтаж звуку».
-Номінація на премію «Золота малина» у 1999 році в категорії «Найгірша чоловіча роль другого плану» (Джо Пеші).


Тривалість: 02:07:24
Якість:
Відео:
кодек: VC-1
розмір кадру: 1920 х 1080
бітрейт: 24 Mб/с

Аудіо # 1:
мова: українська
переклад: багатоголосий закадровий
кодек: 2.0
бітрейт: 192 кб/с

Аудіо # 2:
мова: українська
переклад: багатоголосий закадровий
кодек: 2.0
бітрейт: 192 кб/с

Аудіо # 3:
мова: англійська
переклад: оригінал
кодек: -HD MA 5.1
бітрейт: 2358 кб/с

Аудіо # 4:
мова: англійська
переклад: оригінал
кодек: 2.0
бітрейт: 192 кб/с

Субтитри:
мова: англійська
тип: пререндерні
формат: *.pgs

Збережено оригінальні розділи, як на Blu-ray.
Info
General
Unique ID : 168338684822429777918661606493625744990 (0x7EA4D9F4AF0C86C7A87D86C372DF7E5E)
Complete name : F:\Екшн, кримінал\Lethal Weapon. Collection Remux 1080p\Lethal Weapon 4 (1998) Remux 1080p [Remastered] 2хUkrEng Sub Eng [Hurtom].
Format :
Format version : Version 4
File size : 24.0 GiB
Duration : 2 h 7 min
Overall bit rate mode : Variable
Overall bit rate : 27.0 Mb/s
Movie name : Смертельна зброя 4 / Lethal Weapon 4 (1998) Remux 1080p [Remastered] 2хUkr/Eng | Sub Eng [Hurtom]
Encoded date : UTC 2019-08-21 22:47:07
Writing application : v25.0.0 ('Prog Noir') 64-bit
Writing library : libebml v1.3.6 + v1.4.9
Cover : Yes
Attachments : xlog.txt / cover.jpg

Video
ID : 1
Format : VC-1
Format profile : [email protected]
Codec ID : V_MS/VFW/FOURCC / WVC1
Codec ID/Hint : Microsoft
Duration : 2 h 7 min
Bit rate : 24.0 Mb/s
Width : 1 920 pixels
Height : 1 080 pixels
Display aspect ratio : 16:9
Frame rate mode : Constant
Frame rate : 23.976 (24000/1001) FPS
Color space : YUV
Chroma subsampling : 4:2:0
Bit depth : 8 bits
Scan type : Progressive
Compression mode : Lossy
Bits/(Pixel*Frame) : 0.483
Stream size : 21.4 GiB (89%)
Title : Lethal Weapon 4 (1998) Remux 1080p [Remastered] 2хUkr/Eng | Sub Eng [Hurtom]
Language : Ukrainian
Default : Yes
Forced : Yes

Audio #1
ID : 2
Format : AC-3
Format/Info : Audio Coding 3
Commercial name : Dolby Digital
Codec ID : A_AC3
Duration : 2 h 7 min
Bit rate mode : Constant
Bit rate : 192 kb/s
Channel(s) : 2 channels
Channel layout : L R
Sampling rate : 48.0 kHz
Frame rate : 31.250 FPS (1536 SPF)
Bit depth : 16 bits
Compression mode : Lossy
Stream size : 175 MiB (1%)
Title : MVO [ICTV] 2.0
Language : Ukrainian
Service kind : Complete Main
Default : Yes
Forced : Yes

Audio #2
ID : 3
Format : AC-3
Format/Info : Audio Coding 3
Commercial name : Dolby Digital
Codec ID : A_AC3
Duration : 2 h 7 min
Bit rate mode : Constant
Bit rate : 192 kb/s
Channel(s) : 2 channels
Channel layout : L R
Sampling rate : 48.0 kHz
Frame rate : 31.250 FPS (1536 SPF)
Bit depth : 16 bits
Compression mode : Lossy
Stream size : 175 MiB (1%)
Title : MVO [1+1] 2.0
Language : Ukrainian
Service kind : Complete Main
Default : No
Forced : No

Audio #3
ID : 4
Format : XLL
Format/Info : Digital Theater Systems
Commercial name : -HD Master Audio
Codec ID : A_DTS
Duration : 2 h 7 min
Bit rate mode : Variable
Bit rate : 2 358 kb/s
Channel(s) : 6 channels
Channel layout : C L R Ls Rs LFE
Sampling rate : 48.0 kHz
Frame rate : 93.750 FPS (512 SPF)
Bit depth : 16 bits
Compression mode : Lossless
Stream size : 2.10 GiB (9%)
Title : Original -HD MA 5.1
Language : English
Default : No
Forced : No

Audio #4
ID : 5
Format : AC-3
Format/Info : Audio Coding 3
Commercial name : Dolby Digital
Codec ID : A_AC3
Duration : 2 h 7 min
Bit rate mode : Constant
Bit rate : 192 kb/s
Channel(s) : 2 channels
Channel layout : L R
Sampling rate : 48.0 kHz
Frame rate : 31.250 FPS (1536 SPF)
Bit depth : 16 bits
Compression mode : Lossy
Stream size : 175 MiB (1%)
Title : Original 2.0
Language : English
Service kind : Complete Main
Default : No
Forced : No

Text
ID : 6
Format : PGS
Muxing mode : zlib
Codec ID : S_HDMV/PGS
Codec ID/Info : Picture based subtitle format used on BDs/HD-DVDs
Duration : 2 h 6 min
Bit rate : 39.7 kb/s
Count of elements : 3714
Stream size : 36.1 MiB (0%)
Title : Eng (SDH)
Language : English
Default : No
Forced : No

Menu
00:00:00.000 : en:Warm Reception
00:01:52.195 : en:News Under Fire
00:03:51.606 : en:Striptease
00:05:54.604 : en:On the Sea
00:09:47.587 : en:Collision Course
00:13:40.110 : en:Surprise Delivery
00:15:31.931 : en:Caught By a Train
00:17:28.964 : en:A Sensitive Man
00:20:32.439 : en:Even More Cargo
00:21:55.355 : en:About Marrying
00:25:28.109 : en:Roger Stories
00:27:50.293 : en:Menagerie
00:32:20.480 : en:Capt'ns Outrageous
00:35:42.515 : en:Mischief
00:38:17.962 : en:Hungry for Chinese
00:40:15.412 : en:Private Investigator Leo
00:43:04.123 : en:With Uncle Benny
00:46:27.868 : en:Chase in Chinatown
00:49:28.507 : en:Riggs Hangs Out
00:51:19.659 : en:Dath From Strangling
00:52:14.965 : en:Good Men
00:55:53.808 : en:Not Too Old
00:58:45.396 : en:Telephone Stories
01:02:42.675 : en:Unwelcome Guests
01:06:32.780 : en:Playing with Fire
01:09:36.463 : en:Hot Chase
01:11:34.206 : en:Party in a Caravan
01:13:44.503 : en:Turning the Tables
01:15:37.449 : en:Slight Detour
01:17:28.018 : en:Family Reunion
01:20:01.505 : en:Not with Me
01:22:38.453 : en:Funny Guys
01:27:29.202 : en:Finishing the Job
01:31:05.918 : en:Only You
01:33:03.035 : en:Dads and Kids
01:35:37.106 : en:Dealbreaker
01:38:03.919 : en:Harbor Fireworks
01:40:33.610 : en:Wounded on Both Sides
01:43:51.475 : en:Frenzy Fight
01:46:22.667 : en:Useful Weapons
01:47:29.985 : en:Riggs...Down Below
01:50:10.604 : en:Best Friends
01:53:53.368 : en:In the Last Minute
01:58:03.117 : en:The Baby Bridgade
02:00:15.208 : en:Family Album
Скріншоти
Джерело: &
За готові доріжки та запис з ТБ дякую п. JACKUS, Тирік, Bohdan237, robotron005, slavik_v_z, servus12 . Окрема подяка п. Arsenfpu за збірку AVC !
Особиста оцінка: 10 - без зайвих вагань рекомендую всім




Золотий реліз (завантажене не впливає на рейтинг)
 Трекер:    Зареєстрований   

Завантажити / скачати фільм українською



відео для новачків



 Зареєстрований:   2019-08-22 10:19
 Розмір:   23.99 GB 
 Оцінка фільму:   9.9/10 (Голосів: 9)
   
Інші релізи
   Смертельна зброя 4 / Lethal weapon 4 (1998) rostik_neo  2 / 0   1.46 GB   2008-08-24 17:53 
Ваш часовий пояс: GMT + 2 Години

Нова тема   Відповісти