Смертельна зброя 3 / Lethal Weapon 3 (1992) Remux 1080p [Remastered] 2хUkr/Eng | Sub Eng

Нові коментарі

Нова тема   Відповісти
Автор Повідомлення
MakRA 
VIP


З нами з: 11.11.18
Востаннє: 29.09.20
Повідомлень: 1120

2019-08-22 01:03  
Смертельна зброя 3 / Lethal Weapon 3 (1992) Remux 1080p [Remastered] 2хUkr/Eng | Sub Eng


Альтернативні постери:


Жанр: екшн, кримінальний, трилер
Країна: США



Кінокомпанія: Silver Pictures, Warner Bros. Pictures
Режисер: Річард Доннер [Richard Donner]
Актори: Мел Гібсон [Mel Gibson], Денні Гловер [Danny Glover], Джо Пеші [Joe Pesci], Рене Руссо [Rene Russo], Стюарт Вілсон [Stuart Wilson], Стів Кехен [Steve Kahan], Дарлен Лав [Darlene Love], Трейсі Вульф [Traci Wolfe], Деймон Хайнс [Damon Hines], Ебоні Сміт [Ebonie Smith].

Сюжет:
Третя частина культового «баді-муві» про небезпечні пригоди детективів поліції Мартіна Ріггза та Роджера Мерта.

Головні герої - невтомні копи, які завжди готові рятувати безпорадних людей і боротися зі злочинністю. Напарники знову змушені витягти свої пістолети, згадати навички рукопашного бою та освіжити в пам'яті навички смертельно небезпечних погонь. Цього разу Роджеру та Мартіну доведеться вступити в непросте протистояння з афро-американськими гангстерами під проводом божевільного екс-поліцейського на ім'я Джек Тревіс, який давно не пам’ятає що таке честь та гідність. Знайти докази проти «брудного» поліцейського Ріггзу та Мерта допомагає Лорна Коул - рішуча жінка-поліцейський…
Цікаві факти:

-Мерта і Ріггс проїжджають кінотеатр, де йде фільм «Реклама на радіо» (1992), режисером якого був Річард Доннер.
-Під час погоні за інкасаторським автомобілем Делорес вигукує, що він — Воїн дороги. Американська назва «Скаженого Макса 2» (1981), де головну роль зіграв Мел Гібсон, — «Воїн дороги».
-Додивиться заключні титри до кінця, оскільки після них слідує невелика сцена.
-Човен Мерта називається «Код 7», що є умовним кодом поліції Лос-Анджелеса для перерви на обід.
-Це — єдиний фільм в даному кіносеріалі, де лиходії не загрожували сім'ї Мерта.
-Під час сцени, де Ріггс і Лорна порівнюють шрами, безліч шрамів, отриманих Ріггсом, припадають на події в «Смертельній зброї 2» (1989), зокрема шрам від кульового поранення в легеню і шрам від удару ножем у ногу.
-Коли на початку фільму будівля вибухає, то рев, який чує глядач, також був використаний у фільмі «Кінг Конг» (1976).
-Кількість убитих: 17.
-Керрі Фішер доводила сценарій, але її ім'я не згадується в титрах.
-Білл Фредерік, мер Орландо, зіграв поліцейського, який говорить «Браво!», Звертаючись до Мерта і Ріггса після вибуху будівлі.
-Джоел Сільвер заплатив 165000 доларів за дозвіл на знесення будівлі.
-Через касовий успіх фільму студія «Warner Brothers» подарувала Мелу Гібсону, Денні Гловеру, Джо Пеші, Рене Руссо, Джоелу Сільверу, Річарду Доннеру і Джеффрі Боумену по новому джипу «Range Rover».
-Режисерська версія фільму має хронометраж 121 хвилина.
-Будівля, яку помилково підривають Ріггс і Мерта, вибухає насправді. Ця будівля мерії в Орландо, що призначалася під знесення. Вибухотехніки підірвали будівлю, знімальна група зняла процес у всіх подробицях з безлічі ракурсів. А Гібсон і Гловер без жодних дублерів по справжньому тікали від справжнього вибуху. Пізніше, учасники всіх чотирьох фільмів назвуть цей вибух найкращим з усіх, які їм довелося зняти.


Тривалість: 01:57:53
Якість: Remux 1080p
Відео:
кодек: VC-1
розмір кадру: 1920 х 1080
бітрейт: 23,8 Mб/с

Аудіо # 1:
мова: українська
переклад: багатоголосий закадровий
кодек: 2.0
бітрейт: 192 кб/с

Аудіо # 2:
мова: українська
переклад: багатоголосий закадровий
кодек: 2.0
бітрейт: 192 кб/с

Аудіо # 3:
мова: англійська
переклад: оригінал
кодек: -HD MA 5.1
бітрейт: 2307 кб/с

Аудіо # 4:
мова: англійська
переклад: оригінал
кодек: 2.0
бітрейт: 192 кб/с

Субтитри:
мова: англійська
тип: пререндерні
формат: *.pgs

Збережено оригінальні розділи, як на Blu-ray.
Info
General
Unique ID : 286719639198949996323642109675837126595 (0xD7B431A1F8528B0A1460F2887DC8F7C3)
Complete name : F:\Екшн, кримінал\Lethal Weapon. Collection Remux 1080p\Lethal Weapon 3 (1992) Remux 1080p [Remastered] 2хUkrEng Sub Eng [Hurtom].
Format :
Format version : Version 4
File size : 22.0 GiB
Duration : 1 h 57 min
Overall bit rate mode : Variable
Overall bit rate : 26.7 Mb/s
Movie name : Смертельна зброя 3 / Lethal Weapon 3 (1992) Remux 1080p [Remastered] 2хUkr/Eng | Sub Eng [Hurtom]
Encoded date : UTC 2019-08-21 20:19:23
Writing application : v25.0.0 ('Prog Noir') 64-bit
Writing library : libebml v1.3.6 + v1.4.9
Cover : Yes
Attachments : xlog.txt / cover.jpg

Video
ID : 1
Format : VC-1
Format profile : [email protected]
Codec ID : V_MS/VFW/FOURCC / WVC1
Codec ID/Hint : Microsoft
Duration : 1 h 57 min
Bit rate : 23.8 Mb/s
Width : 1 920 pixels
Height : 1 080 pixels
Display aspect ratio : 16:9
Frame rate mode : Constant
Frame rate : 23.976 (24000/1001) FPS
Color space : YUV
Chroma subsampling : 4:2:0
Bit depth : 8 bits
Scan type : Progressive
Compression mode : Lossy
Bits/(Pixel*Frame) : 0.479
Stream size : 19.6 GiB (89%)
Title : Lethal Weapon 3 (1992) Remux 1080p [Remastered] 2хUkr/Eng | Sub Eng [Hurtom]
Language : Ukrainian
Default : Yes
Forced : Yes

Audio #1
ID : 2
Format : AC-3
Format/Info : Audio Coding 3
Commercial name : Dolby Digital
Codec ID : A_AC3
Duration : 1 h 57 min
Bit rate mode : Constant
Bit rate : 192 kb/s
Channel(s) : 2 channels
Channel layout : L R
Sampling rate : 48.0 kHz
Frame rate : 31.250 FPS (1536 SPF)
Bit depth : 16 bits
Compression mode : Lossy
Stream size : 162 MiB (1%)
Title : MVO [ICTV] 2.0
Language : Ukrainian
Service kind : Complete Main
Default : Yes
Forced : Yes

Audio #2
ID : 3
Format : AC-3
Format/Info : Audio Coding 3
Commercial name : Dolby Digital
Codec ID : A_AC3
Duration : 1 h 57 min
Bit rate mode : Constant
Bit rate : 192 kb/s
Channel(s) : 2 channels
Channel layout : L R
Sampling rate : 48.0 kHz
Frame rate : 31.250 FPS (1536 SPF)
Bit depth : 16 bits
Compression mode : Lossy
Stream size : 162 MiB (1%)
Title : MVO [1+1] 2.0
Language : Ukrainian
Service kind : Complete Main
Default : No
Forced : No

Audio #3
ID : 4
Format : XLL
Format/Info : Digital Theater Systems
Commercial name : -HD Master Audio
Codec ID : A_DTS
Duration : 1 h 57 min
Bit rate mode : Variable
Bit rate : 2 307 kb/s
Channel(s) : 6 channels
Channel layout : C L R Ls Rs LFE
Sampling rate : 48.0 kHz
Frame rate : 93.750 FPS (512 SPF)
Bit depth : 16 bits
Compression mode : Lossless
Stream size : 1.90 GiB (9%)
Title : Original -HD MA 5.1
Language : English
Default : No
Forced : No

Audio #4
ID : 5
Format : AC-3
Format/Info : Audio Coding 3
Commercial name : Dolby Digital
Codec ID : A_AC3
Duration : 1 h 57 min
Bit rate mode : Constant
Bit rate : 192 kb/s
Channel(s) : 2 channels
Channel layout : L R
Sampling rate : 48.0 kHz
Frame rate : 31.250 FPS (1536 SPF)
Bit depth : 16 bits
Compression mode : Lossy
Stream size : 162 MiB (1%)
Title : Original 2.0
Language : English
Service kind : Complete Main
Default : No
Forced : No

Text
ID : 6
Format : PGS
Muxing mode : zlib
Codec ID : S_HDMV/PGS
Codec ID/Info : Picture based subtitle format used on BDs/HD-DVDs
Duration : 1 h 56 min
Bit rate : 49.6 kb/s
Count of elements : 3945
Stream size : 41.2 MiB (0%)
Title : Eng (SDH)
Language : English
Default : No
Forced : No

Menu
00:00:00.000 : en:Chapter 1
00:01:39.182 : en:Chapter 2
00:07:48.676 : en:Chapter 3
00:10:05.062 : en:Chapter 4
00:15:11.744 : en:Chapter 5
00:20:08.832 : en:Chapter 6
00:22:06.450 : en:Chapter 7
00:24:36.975 : en:Chapter 8
00:29:16.421 : en:Chapter 9
00:37:00.593 : en:Chapter 10
00:43:34.028 : en:Chapter 11
00:49:31.551 : en:Chapter 12
00:53:44.262 : en:Chapter 13
00:56:17.791 : en:Chapter 14
00:58:06.483 : en:Chapter 15
01:00:42.347 : en:Chapter 16
01:05:49.111 : en:Chapter 17
01:11:41.422 : en:Chapter 18
01:14:59.745 : en:Chapter 19
01:18:15.982 : en:Chapter 20
01:22:29.361 : en:Chapter 21
01:24:37.197 : en:Chapter 22
01:27:21.945 : en:Chapter 23
01:29:59.268 : en:Chapter 24
01:34:44.178 : en:Chapter 25
01:37:15.329 : en:Chapter 26
01:42:34.606 : en:Chapter 27
01:46:24.628 : en:Chapter 28
01:48:26.458 : en:Chapter 29
01:51:44.030 : en:Chapter 30
01:57:05.018 : en:Chapter 31
Скріншоти
Джерело: &
За готові доріжки та запис з ТБ дякую п. JACKUS, Тирік, Bohdan237, robotron005, slavik_v_z, servus12 . Окрема подяка п. Arsenfpu за збірку AVC !
Особиста оцінка: 10 - без зайвих вагань рекомендую всім




Золотий реліз (завантажене не впливає на рейтинг)
 Трекер:    Зареєстрований   

Завантажити / скачати фільм українською



відео для новачків



 Зареєстрований:   2019-08-22 01:03
 Розмір:   21.99 GB 
 Оцінка фільму:   10/10 (Голосів: 10)
   
Інші релізи
   Смертельна зброя 3 / Lethal weapon 3 (1992) rostik_neo  0 / 0   1.34 GB   2008-08-18 20:31 
Ваш часовий пояс: GMT + 2 Години

Нова тема   Відповісти