Секрети домашніх тварин 2 / The Secret Life of Pets 2 (2019) Remux 1080p Ukr/Eng | Sub Eng

Нові коментарі

Нова тема   Відповісти
Автор Повідомлення
Anonymous 







2019-08-21 07:16  
Секрети домашніх тварин 2 / The Secret Life of Pets 2 (2019) Remux 1080p Ukr/Eng | Sub Eng


Секрети домашніх тварин 2 / The Secret Life of Pets 2 (2019) Remux 1080p Ukr/Eng | Sub Eng
Альтернативні постери

















Жанр: комедія, мультфільм, пригодницький, сімейний
Країна: США, Франція, Японія



Кінокомпанія: Universal Pictures, Illumination Entertainment, Dentsu
Режисер: Кріс Рено, Джонатан дель Валь
Актори: Петтон Освальт, Кевін Харт, Гаррісон Форд, Ерік Стоунстріт, Дженні Слейт, Тіффані Хеддіш, Лейк Белл, Дена Карві, Боббі Мойнахан, Геннібал Бересс

Сюжет:
Славетні домашні улюбленці повертаються! Ми й не підозрюємо, скільки усього вони встигають, коли нас немає поруч. Відомі герої і нові «темні конячки», ще більше карколомних пригод і багато пухнастих секретів у комедії для всієї родини!


Тривалість: 01:26:04
Якість: Remux 1080p

Відео:
кодек:
розмір кадру: 1920x1080
бітрейт: 32,1 Мб/с

Аудіо # 1:
мова: українська
переклад: професійний дубльований
кодек: 2.0 (стерео)
бітрейт: 192 кб/с

Аудіо # 2:
мова: англійська
переклад: оригінал
кодек: 5.1
бітрейт: 448 кб/с

Аудіо # 3:
мова: англійська
переклад: оригінал
кодек: TrueHD + Atmos 7.1
бітрейт: 3318 кб/с

Субтитри:
мова: англійська
тип: програмні (м'які)
формат: *.srt
Info
Код:

General
Complete name                            : The Secret Life of Pets 2 (2019) Blu-Ray Remux [ukr,eng] [ViDeO_Hurtom].
Format                                   :
Format version                           : Version 4
File size                                : 21.7 GiB
Duration                                 : 1 h 26 min
Overall bit rate mode                    : Variable
Overall bit rate                         : 36.1 Mb/s
Movie name                               : The Secret Life of Pets 2 (2019) Blu-Ray Remux [ukr,eng] [ViDeO_Hurtom]
Encoded date                             : UTC 2019-08-21 10:53:57
Writing application                      : v30.1.0 ('Forever And More') 64-bit
Writing library                          : libebml v1.3.6 + v1.4.9

Video
ID                                       : 1
Format                                   : AVC
Format/Info                              : Advanced Video Codec
Format profile                           : [email protected]
Format settings                          : CABAC / 4 Ref Frames
Format settings, CABAC                   : Yes
Format settings, RefFrames               : 4 frames
Codec ID                                 : V_MPEG4/ISO/AVC
Duration                                 : 1 h 26 min
Bit rate mode                            : Variable
Bit rate                                 : 32.1 Mb/s
Maximum bit rate                         : 35.0 Mb/s
Width                                    : 1 920 pixels
Height                                   : 1 080 pixels
Display aspect ratio                     : 16:9
Frame rate mode                          : Constant
Frame rate                               : 23.976 (24000/1001) FPS
Color space                              : YUV
Chroma subsampling                       : 4:2:0
Bit depth                                : 8 bits
Scan type                                : Progressive
Bits/(Pixel*Frame)                       : 0.645
Stream size                              : 19.3 GiB (89%)
Language                                 : English
Default                                  : Yes
Forced                                   : No

Audio #1
ID                                       : 2
Format                                   : AC-3
Format/Info                              : Audio Coding 3
Commercial name                          : Dolby Digital
Codec ID                                 : A_AC3
Duration                                 : 1 h 26 min
Bit rate mode                            : Constant
Bit rate                                 : 192 kb/s
Channel(s)                               : 2 channels
Channel layout                           : L R
Sampling rate                            : 48.0 kHz
Frame rate                               : 31.250 FPS (1536 SPF)
Bit depth                                : 16 bits
Compression mode                         : Lossy
Stream size                              : 118 MiB (1%)
Title                                    : , 2 ch, 192 Кбт/с
Language                                 : Ukrainian
Service kind                             : Complete Main
Default                                  : Yes
Forced                                   : No

Audio #2
ID                                       : 3
Format                                   : AC-3
Format/Info                              : Audio Coding 3
Commercial name                          : Dolby Digital
Codec ID                                 : A_AC3
Duration                                 : 1 h 26 min
Bit rate mode                            : Constant
Bit rate                                 : 448 kb/s
Channel(s)                               : 6 channels
Channel layout                           : L R C LFE Ls Rs
Sampling rate                            : 48.0 kHz
Frame rate                               : 31.250 FPS (1536 SPF)
Bit depth                                : 16 bits
Compression mode                         : Lossy
Stream size                              : 276 MiB (1%)
Title                                    : , 6 ch, 448 Кбт/с
Language                                 : English
Service kind                             : Complete Main
Default                                  : No
Forced                                   : No

Audio #3
ID                                       : 4
Format                                   : MLP FBA 16-ch
Format/Info                              : Meridian Lossless Packing FBA with 16-channel presentation
Commercial name                          : Dolby TrueHD with Dolby Atmos
Codec ID                                 : A_TRUEHD
Duration                                 : 1 h 26 min
Bit rate mode                            : Variable
Bit rate                                 : 3 318 kb/s
Maximum bit rate                         : 4 644 kb/s
Channel(s)                               : 8 channels
Channel layout                           : L R C LFE Ls Rs Lb Rb
Sampling rate                            : 48.0 kHz
Frame rate                               : 1 200.000 FPS (40 SPF)
Compression mode                         : Lossless
Stream size                              : 1.99 GiB (9%)
Title                                    : TrueHD, 8 ch, 3318 Кбт/с
Language                                 : English
Default                                  : No
Forced                                   : No
Number of dynamic objects                : 11
Bed channel count                        : 1 channel
Bed channel configuration                : LFE

Text
ID                                       : 5
Format                                   : UTF-8
Codec ID                                 : S_TEXT/UTF8
Codec ID/Info                            : UTF-8 Plain Text
Duration                                 : 1 h 25 min
Bit rate                                 : 53 b/s
Count of elements                        : 1324
Stream size                              : 33.3 KiB (0%)
Title                                    : Full
Language                                 : English
Default                                  : No
Forced                                   : No

Menu
00:00:00.000                             : en:Chapter 01
00:05:34.542                             : en:Chapter 02
00:10:07.815                             : en:Chapter 03
00:13:26.305                             : en:Chapter 04
00:16:39.790                             : en:Chapter 05
00:19:56.945                             : en:Chapter 06
00:24:10.073                             : en:Chapter 07
00:28:15.735                             : en:Chapter 08
00:30:54.269                             : en:Chapter 09
00:35:15.113                             : en:Chapter 10
00:39:55.976                             : en:Chapter 11
00:45:47.327                             : en:Chapter 12
00:49:51.822                             : en:Chapter 13
00:56:54.994                             : en:Chapter 14
00:58:35.220                             : en:Chapter 15
01:02:48.931                             : en:Chapter 16
01:07:16.615                             : en:Chapter 17
01:12:48.822                             : en:Chapter 18
01:15:21.808                             : en:Chapter 19
01:18:10.018                             : en:Chapter 20
Скріншоти








Джерело:
Особиста оцінка: 10 - без зайвих вагань рекомендую всім!


Золотий реліз (завантажене не впливає на рейтинг)
 Трекер:    Зареєстрований   

Завантажити / скачати мультфільм українською



відео для новачків



 Зареєстрований:   2019-09-08 10:47
 Розмір:   21.82 GB 
 Оцінка мультфільму:   9.4/10 (Голосів: 53)
   
bot 
робот


З нами з: 30.09.07
Востаннє: 26.05.05
Повідомлень: 27363

2019-08-21 13:49  
Тему перенесено з Анонси релізів до форуму Мультфільми в HD


antik_2008

eGo.GreK 
Новенький


З нами з: 10.08.14
Востаннє: 07.03.21
Повідомлень: 3

2019-08-21 15:10  
Дякую за якісний реліз! Wide grin
berst 
Новенький


З нами з: 01.01.15
Востаннє: 08.03.21
Повідомлень: 4

2019-08-22 14:05  
Може хто знає. Українською буде 5.1?
Mark_Targarien 
Новенький


З нами з: 23.08.19
Востаннє: 07.12.19
Повідомлень: 1

2019-08-24 17:21  
Топовий мульт, сюжет і гумор на висоті Wide grin
Anonymous 







2019-08-27 14:15  
10 - без зайвих вагань рекомендую всім!
sergio777p 
Новенький


З нами з: 05.10.16
Востаннє: 04.03.21
Повідомлень: 20

2019-08-30 01:05  
Файний мульт. Переклад та озвучка просто супер.
Rabotnik UA 
Новенький


З нами з: 31.08.15
Востаннє: 08.02.21
Повідомлень: 24

2019-09-01 19:44  
давно так не радів від побаченого та почутогоHappy
релізеру окрема подяка за гарний настрій для всієї сім'ї

Anonymous 







2019-09-08 10:48  
Оновив торент файл . Додав якісніший звук .
ika1963 
Відео Гуртом - дизайнер
Відео Гуртом - дизайнер


З нами з: 13.05.10
Востаннє: 07.03.21
Повідомлень: 305

2019-10-07 00:13  
"LG" не сприймають цей файл. Sad (1)
nickosat 
Новенький


З нами з: 23.11.14
Востаннє: 04.03.21
Повідомлень: 12

2019-10-11 21:08  
Однозначно 10+++++
O_omarella! 
Поважний учасник


З нами з: 14.06.13
Востаннє: 27.02.21
Повідомлень: 199

2020-01-26 20:27  
Мультик бомба! Що перша, що друга частина!
Andruxa85 
Новенький


З нами з: 21.01.20
Востаннє: 05.03.21
Повідомлень: 19

2020-07-10 10:43  
А ну підкажіть, тільки в мене мульт починає грати и викидає одразу? або починає і потім перекидує на 10-15 секунд вперед(це якщо з компа програвати)? Програю через Plex. Все інше працює і показує добре
sandman 
VIP


З нами з: 12.08.12
Востаннє: 08.03.21
Повідомлень: 442

2020-07-10 11:37  
Andruxa85
а для чого, якщо з компа, через Plex? Чи сервер не ця машина? В будь якому випадку переконайтесь, що Plex "не робить зайвої непотрібної роботи" - перевірте чи включений Direct play (пряме відтворення) і Direct Stream (пряма трансляція). Конвертити тут йому нема чого: і і підтримуються абсолютно всіма клієнтами.

Andruxa85 
Новенький


З нами з: 21.01.20
Востаннє: 05.03.21
Повідомлень: 19

2020-07-13 09:59  
sandman
В мене НАС окремо стоїть. Плекс нічого зайвого не робить, все інще показує як треба. А тут склалось враження, що битий файл. Я вже тричі його перекачував, одне і те саме. Перескакує кожні пару секунд на 10-15 вперед.

igor911 
Модератор відео


З нами з: 18.01.08
Востаннє: 09.03.21
Повідомлень: 15639

2020-07-13 10:33  
Andruxa85, спробуй просто перемуксувати файл в себе на компі (MKVToolNix), можливо викинувши зайву англ.доріжку. Вище теж були скарги на сумісність https://toloka.to/t103414#1125194

Додано через 1 хвилину 43 секунди:

по МІ тут нічого не скажеш, бо воно від старого файлу 2019-08-21, що був до останнього оновлення релізу.

Andruxa85 
Новенький


З нами з: 21.01.20
Востаннє: 05.03.21
Повідомлень: 19

2020-07-13 10:37  
igor911 написано:
(MKVToolNix

не вмію, але спробую. Дякую

igor911 
Модератор відео


З нами з: 18.01.08
Востаннє: 09.03.21
Повідомлень: 15639

2020-07-13 11:44  
Andruxa85 написано:
не вмію, але спробую

там легко - перетягнути файл у вікно програми, зняти прапорець з однієї чи обох англійських доріжок (наприклад) і зберегти новий файл.

Andruxa85 
Новенький


З нами з: 21.01.20
Востаннє: 05.03.21
Повідомлень: 19

2020-07-14 12:58  
igor911
Зробив. Так і не показує його. Видалив и скачав гіршої якості.

sandman 
VIP


З нами з: 12.08.12
Востаннє: 08.03.21
Повідомлень: 442

2020-07-15 12:57  
мені аж цікаво стало - завантажую Happy. Я вже багато років користуюсь Plex, дуже рідко з ним виникали якісь негаразди. Потестую - відпишу

Додано через 1 годину 52 хвилини 46 секунд:

Навіть не знаю, що сказати. Зазвичай проблеми при роботі через Plex - проблеми клієнта, який відтворює. До сервера вимоги мінімальні і якщо він не конвертить нічого на льоту (а це відбувається, якщо саме клієнт не підтримує апаратно якийсь кодек), то все йде гладко. Для прикладу: мій основний клієнт - PS4, він апаратно не підтримує VC-1 і з такими стрічками в мене трапляються трабли, бо як сервачок в мене старенький лептопчик.
Цей мульт я прогнав через всі наявні в мене клієнти: PS4, Win, macOS, iOS - на всіх він відтворився ну просто ідеально гладенько.

Andruxa85 
Новенький


З нами з: 21.01.20
Востаннє: 05.03.21
Повідомлень: 19

2020-07-16 10:12  
sandman
от і я не зрозумів, що в мене трапилось і чому він не програється як і все інше. Не програє на жодному пристрої. Точніше починає показувати, потім стрибає на 10 скунд вперед и на 45 секунді викидає на стартову Плекса

Ваш часовий пояс: GMT + 2 Години

Нова тема   Відповісти