Смертельна зброя 2 / Lethal weapon 2 (1989) Remux 1080p [Remastered] Ukr/Eng | Sub Eng

Нові коментарі

Нова тема   Відповісти
Автор Повідомлення
MakRA 
VIP


З нами з: 11.11.18
Востаннє: 21.09.20
Повідомлень: 1119

2019-08-21 02:12  
Смертельна зброя 2 / Lethal weapon 2 (1989) Remux 1080p [Remastered] Ukr/Eng | Sub Eng


Український постер:

Альтернативні постери:





Жанр: екшн, кримінальний, трилер
Країна: США



Кінокомпанія: Warner Bros., Silver Pictures
Режисер: Річард Доннер [Richard Donner]
Актори: Мел Гібсон [Mel Gibson], Денні Гловер [Danny Glover], Джо Пеші [Joe Pesci], Джосс Екленд [Joss Ackland], Деррік О’Коннор [Derrick O'Connor], Петсі Кензіт [Patsy Kensit], Дарлен Лав [Darlene Love], Трейсі Вульф [Traci Wolfe], Стів Кехен [Steve Kahan], Марк Ролстон [Mark Rolston]

Сюжет:
Головні герої, детективи поліції Мартін Ріггз та Роджер Мерта знову в справі. Вони вже не перший день працюють разом, тому звикли до дивацтв один одного. Мартін залишився таким самим навіженим копом, якому ніколи не набридне його робота, а Роджер продовжує страждати від дивацтв свого напарника. Цього разу, Ріггз та Мерта виходять на слід потужного наркокартелю. Поліції навіть вдалося заарештувати одного з шахраїв, які допомагали гангстерам відмивати їх брудні гроші. Детективам доручають охороняти цього свідка-афериста, кумедного коротуна на ім'я Лео Гетс. Але головною проблемою слідства є дипломатична недоторканість головних підозрюваних…
Цікаві факти:

-Заради цього фільму, Мел Гібсон відмовився від головної ролі у фільмі «Бетмен» (1989).
-Альтернативний фінал фільму: вечеря на День подяки в будинку Мерта, де також присутні Ріггс і Ріка Ван Хаас.
-Спочатку Ріггс мав загинути у фінальній сцені фільму, але продюсери вирішили залишити його в живих, для того щоб була можливість зняти продовження.
-Поки сім'я Мерта чекає той самий рекламний ролик, вони дивляться «Байки зі склепу» (1989), епізод 1,2 «And All Through The House», прем'єра якого відбулася 10 червня 1989 року, і де зіграла Мері Еллен Трейнор, яка виконала роль доктора Стефанії Вудс. До того ж, кілька епізодів «Байок з склепу» були спродюсовані Річардом Доннером, який поставив цей фільм.
-Назва одеколону, флакон якого розбивається вщент під час руйнування трейлера Ріггса, — «Hero». У перший раз, коли ми бачимо Ріггса, що входить в свій будинок на колесах, можна помітити, що по телевізору йде реклама цього одеколону.
-У сцені, де Лео прибирає в будинку Ріггса, грає пісня «I` m Not Scared» британської поп-групи «Eighth Wonder», учасницею якої була Петсі Кензі, яка зіграла Ріку Ван Хаас.
-Коронна фраза Лео «окей-окей-окей» була заснована на манері розмови співробітників парків розваг «Disneyland», коли вони пояснювали дорогу до «Fantasyland».
-Спочатку Лео мав бути улесливим і зніженим персонажам, але Джо Пеші не хотів грати його в такій манері. Він запропонував, щоб Лео був людиною, яка дуже намагається сподобатися всім і кожному.
-Сцена руйнування будинку на опорах обійшлася творцям фільму в більш ніж 500000 доларів.
-Кількість убитих: 33.
-Режисерська версія має хронометраж 118 хвилин.


Тривалість: 01:54:27
Якість:
Відео:
кодек: VC-1
розмір кадру: 1920 х 1080
бітрейт: 24 Mб/с

Аудіо # 1:
мова: українська
переклад: багатоголосий закадровий
кодек: 2.0
бітрейт: 192 кб/с

Аудіо # 2:
мова: англійська
переклад: оригінал
кодек: -HD MA 5.1
бітрейт: 2257 кб/с

Аудіо # 3:
мова: англійська
переклад: оригінал
кодек: 2.0
бітрейт: 192 кб/с

Субтитри: (Full)
мова: англійська
тип: пререндерні
формат: *.pgs

Збережено оригінальні розділи, як на Blu-ray.
Info
General
Unique ID : 292098073128380833813727830322917295981 (0xDBC00AE61A152182A4D2DE45C972476D)
Complete name : F:\Екшн, кримінал\Lethal Weapon. Collection Remux 1080p\Lethal weapon 2 (1989) Remux 1080p UkrEng Sub Eng [Hurtom].
Format :
Format version : Version 4
File size : 21.3 GiB
Duration : 1 h 54 min
Overall bit rate mode : Variable
Overall bit rate : 26.6 Mb/s
Movie name : Смертельна зброя 2 / Lethal weapon 2 (1989) Remux 1080p Ukr/Eng | Sub Eng [Hurtom]
Encoded date : UTC 2019-08-20 22:16:32
Writing application : v25.0.0 ('Prog Noir') 64-bit
Writing library : libebml v1.3.6 + v1.4.9
Cover : Yes
Attachments : xlog.txt / cover.jpg

Video
ID : 1
Format : VC-1
Format profile : [email protected]
Codec ID : V_MS/VFW/FOURCC / WVC1
Codec ID/Hint : Microsoft
Duration : 1 h 54 min
Bit rate : 24.0 Mb/s
Width : 1 920 pixels
Height : 1 080 pixels
Display aspect ratio : 16:9
Frame rate mode : Constant
Frame rate : 23.976 (24000/1001) FPS
Color space : YUV
Chroma subsampling : 4:2:0
Bit depth : 8 bits
Scan type : Progressive
Compression mode : Lossy
Bits/(Pixel*Frame) : 0.482
Stream size : 19.2 GiB (90%)
Title : Lethal weapon 2 (1989) Remux 1080p Ukr/Eng | Sub Eng [Hurtom]
Language : Ukrainian
Default : Yes
Forced : Yes

Audio #1
ID : 2
Format : AC-3
Format/Info : Audio Coding 3
Commercial name : Dolby Digital
Codec ID : A_AC3
Duration : 1 h 54 min
Bit rate mode : Constant
Bit rate : 192 kb/s
Channel(s) : 2 channels
Channel layout : L R
Sampling rate : 48.0 kHz
Frame rate : 31.250 FPS (1536 SPF)
Bit depth : 16 bits
Compression mode : Lossy
Stream size : 157 MiB (1%)
Title : MVO [ICTV] [НТН] 2.0
Language : Ukrainian
Service kind : Complete Main
Default : Yes
Forced : Yes

Audio #2
ID : 3
Format : XLL
Format/Info : Digital Theater Systems
Commercial name : -HD Master Audio
Codec ID : A_DTS
Duration : 1 h 54 min
Bit rate mode : Variable
Bit rate : 2 257 kb/s
Channel(s) : 6 channels
Channel layout : C L R Ls Rs LFE
Sampling rate : 48.0 kHz
Frame rate : 93.750 FPS (512 SPF)
Bit depth : 16 bits
Compression mode : Lossless
Stream size : 1.80 GiB (8%)
Title : Original -HD MA 5.1
Language : English
Default : No
Forced : No

Audio #3
ID : 4
Format : AC-3
Format/Info : Audio Coding 3
Commercial name : Dolby Digital
Codec ID : A_AC3
Duration : 1 h 54 min
Bit rate mode : Constant
Bit rate : 192 kb/s
Channel(s) : 2 channels
Channel layout : L R
Sampling rate : 48.0 kHz
Frame rate : 31.250 FPS (1536 SPF)
Bit depth : 16 bits
Compression mode : Lossy
Stream size : 157 MiB (1%)
Title : Original 2.0
Language : English
Service kind : Complete Main
Default : No
Forced : No

Text
ID : 5
Format : PGS
Muxing mode : zlib
Codec ID : S_HDMV/PGS
Codec ID/Info : Picture based subtitle format used on BDs/HD-DVDs
Duration : 1 h 53 min
Bit rate : 28.9 kb/s
Count of elements : 2660
Stream size : 23.5 MiB (0%)
Title : Eng (Full)
Language : English
Default : No
Forced : No

Menu #1
00:00:00.000 : en:Chapter 1
00:07:51.387 : en:Chapter 2
00:10:00.266 : en:Chapter 3
00:11:20.262 : en:Chapter 4
00:12:58.903 : en:Chapter 5
00:16:26.110 : en:Chapter 6
00:18:21.141 : en:Chapter 7
00:21:42.009 : en:Chapter 8
00:23:42.003 : en:Chapter 9
00:25:56.846 : en:Chapter 10
00:30:25.156 : en:Chapter 11
00:33:51.821 : en:Chapter 12
00:35:59.448 : en:Chapter 13
00:39:39.794 : en:Chapter 14
00:42:38.430 : en:Chapter 15
00:43:58.927 : en:Chapter 16
00:45:34.064 : en:Chapter 17
00:47:12.120 : en:Chapter 18
00:48:32.409 : en:Chapter 19
00:50:32.404 : en:Chapter 20
00:51:44.476 : en:Chapter 21
00:55:07.220 : en:Chapter 22
01:00:13.526 : en:Chapter 23
01:06:37.410 : en:Chapter 24
01:07:56.489 : en:Chapter 25
01:12:04.111 : en:Chapter 26
01:15:03.540 : en:Chapter 27
01:19:24.926 : en:Chapter 28
01:24:13.214 : en:Chapter 29
01:26:41.029 : en:Chapter 30
01:28:06.364 : en:Chapter 31
01:30:30.007 : en:Chapter 32
01:33:54.629 : en:Chapter 33
01:37:22.086 : en:Chapter 34
01:41:08.520 : en:Chapter 35
01:43:15.147 : en:Chapter 36
01:45:36.121 : en:Chapter 37
01:46:36.598 : en:Chapter 38
01:49:30.188 : en:Chapter 39

Menu #2
00:00:00.000 : en:Downtown Chase
00:07:51.387 : en:Straitjacket Wager
00:10:00.266 : en:Rianne's Debut
00:11:20.262 : en:Murtaugh's Hobby Room
00:12:58.903 : en:Rianne's Commercial
00:16:26.110 : en:Hans "Fired."
00:18:21.141 : en:Gold Pen - and Memories
00:21:42.009 : en:Murtaugh Family Nightmare
00:23:42.003 : en:The Getz Assignment
00:25:56.846 : en:Room Service
00:30:25.156 : en:Leo's Laundry Lecture
00:33:51.821 : en:The Stilt House
00:35:59.448 : en:Wipeout
00:39:39.794 : en:Diplomatic Immunity
00:42:38.430 : en:Rika
00:43:58.927 : en:A Rubber Plant
00:45:34.064 : en:Rika's Escort Home
00:47:12.120 : en:Leo on Drive-Ins
00:48:32.409 : en:Shadowing Rudd
00:50:32.404 : en:Leo Cleans Home
00:51:44.476 : en:The Batthroom All to Himself
00:55:07.220 : en:"Guys Like You Don't Die on Toilets."
01:00:13.526 : en:Business at the Consulate
01:06:37.410 : en:Reliving the Moment; a Clue
01:07:56.489 : en:Supermarket Seduction
01:12:04.111 : en:Hit...Hard!
01:15:03.540 : en:Nailing Two Hit Men
01:19:24.926 : en:Aerial Assault
01:24:13.214 : en:Seeing Rika Home
01:26:41.029 : en:Vorstedt's Revelation
01:28:06.364 : en:Under the Pier
01:30:30.007 : en:Not a Cop Tonight
01:33:54.629 : en:Bringing Down the House
01:37:22.086 : en:Cargo for the Alba Verden
01:41:08.520 : en:Guns Blazing
01:43:15.147 : en:Duel with Vorstedt
01:45:36.121 : en:Immunity Revoked
01:46:36.598 : en:Dekaffirnated
01:49:30.188 : en:End Credits (Cheer Down)
Скріншоти
Джерело: &
За готові доріжки та запис з ТБ дякую п. JACKUS, Тирік, Bohdan237, robotron005, slavik_v_z, servus12 , та п. mrdavis за українізований постер. Окрема подяка п. Arsenfpu за збірку AVC !
Особиста оцінка: 10 - без зайвих вагань рекомендую всім




Золотий реліз (завантажене не впливає на рейтинг)
 Трекер:    Зареєстрований   

Завантажити / скачати фільм українською



відео для новачків



 Зареєстрований:   2019-08-21 02:12
 Розмір:   21.3 GB 
 Оцінка фільму:   9.9/10 (Голосів: 14)
   
Інші релізи
   Смертельна зброя 2 / Lethal Weapon 2 (1989) Givi  1 / 0   1.33 GB   2009-04-05 14:25 
Ваш часовий пояс: GMT + 2 Години

Нова тема   Відповісти