Проклятий будинок / The Witch in the Window (2018) Ukr/Eng

Нові коментарі

Нова тема   Відповісти
Автор Повідомлення
Anonymous 







2019-08-19 21:32  
Проклятий будинок / The Witch in the Window (2018) Ukr/Eng



Жанр: драма, жахи
Країна: США



Кінокомпанія: One Bad House Films
Режисер: Енді Міттон
Актори: Алекс Дрейпер, Чарлі Такер, Керол Станціоне, Ґреґ Нафтон, Арія Барейкіс, Зак Йетте, Моллі Слотауер, Френкі Данліві, Аделаїд Фіттон, Наомі Фіттон та інші

Сюжет:
Батько і син приїжджають на північний схід США. Там чоловік отримав у власність старовинний будинок, який збирається незабаром відремонтувати і зробити придатним, комфортним для постійного перебування. Особняк виглядає непривітно, проте це не бентежить нового власника. Він приступає до роботи і збирається в короткий термін привести будівлю в належний вигляд. Незабаром починають відбуватися дивні і страшні події. У міру того як просуваються реставраційні роботи, в стінах житла наростає атмосфера страху і жаху. Раніше там жила відьма, зла сутність, тепер новоявлені мешканці потривожили її спокій. Інфернальний демон не збирається залишати притулок і готовий продемонструвати свою могутність людям, які вважають себе господарями.
Офіційний трейлер:

Вікова категорія: 15+
Тривалість: 01:16:29
Якість:
Відео:
кодек:
розмір кадру: 704 х 352
бітрейт: 2315 кб/с

Аудіо # 1:
мова: українська
переклад: багатоголосий закадровий | студія ААА-sound
кодек: 2.0 [стерео]
бітрейт: 192 кб/с
Інформація про озвучення
Режисер та звукорежисер перезапису: Олександр Єфімов
Ролі озвучили: Дмитро Завадський, Юлія Перенчук, Андрій Альохін, Катерина Буцька.

Фільм озвучено студією ААА-sound у 2019 році на замовлення компанії "Каскад Україна".
Аудіо # 2:
мова: англійська
переклад: оригінал
кодек: 2.0
бітрейт: 192 кб/с
Info
Код:
General
Complete name               : The Witch in the Window (2018) [Ukr,Eng] [Hurtom].avi
Format                      : AVI
Format/Info                 : Audio Video Interleave
File size                   : 1.45 GiB
Duration                    : 1 h 16 min
Overall bit rate            : 2 713 kb/s
Movie name                  : Проклятий будинок / The Witch in the Window (2018) [Ukr,Eng] [Hurtom]
Writing application         : VirtualDubModUkr 1.5.10.2 (build 2542/release)
Writing library             : VirtualDubMod build 2542/release

Video
ID                          : 0
Format                      : MPEG-4 Visual
Format profile              : Advanced [email protected]
Format settings             : BVOP1 / Custom Matrix
Format settings, BVOP       : 1
Format settings, QPel       : No
Format settings, GMC        : No warppoints
Format settings, Matrix     : Custom
Codec ID                    :
Codec ID/Hint               :
Duration                    : 1 h 16 min
Bit rate                    : 2 315 kb/s
Width                       : 704 pixels
Height                      : 352 pixels
Display aspect ratio        : 2.000
Frame rate                  : 23.976 (24000/1001) FPS
Color space                 : YUV
Chroma subsampling          : 4:2:0
Bit depth                   : 8 bits
Scan type                   : Progressive
Compression mode            : Lossy
Bits/(Pixel*Frame)          : 0.390
Stream size                 : 1.24 GiB (85%)
Writing library             : 73

Audio #1
ID                          : 1
Format                      : AC-3
Format/Info                 : Audio Coding 3
Commercial name             : Dolby Digital
Codec ID                    : 2000
Duration                    : 1 h 16 min
Bit rate mode               : Constant
Bit rate                    : 192 kb/s
Channel(s)                  : 2 channels
Channel layout              : L R
Sampling rate               : 48.0 kHz
Frame rate                  : 31.250 FPS (1536 SPF)
Bit depth                   : 16 bits
Compression mode            : Lossy
Delay relative to video     : 21 ms
Stream size                 : 105 MiB (7%)
Alignment                   : Split across interleaves
Interleave, duration        : 42  ms (1.00 video frame)
Interleave, preload duratio : 500  ms
Title                       : Ukr MVO [ААА-sound, stereo]
Service kind                : Complete Main

Audio #2
ID                          : 2
Format                      : AC-3
Format/Info                 : Audio Coding 3
Commercial name             : Dolby Digital
Codec ID                    : 2000
Duration                    : 1 h 16 min
Bit rate mode               : Constant
Bit rate                    : 192 kb/s
Channel(s)                  : 2 channels
Channel layout              : L R
Sampling rate               : 48.0 kHz
Frame rate                  : 31.250 FPS (1536 SPF)
Bit depth                   : 16 bits
Compression mode            : Lossy
Delay relative to video     : 21 ms
Stream size                 : 105 MiB (7%)
Alignment                   : Split across interleaves
Interleave, duration        : 42  ms (1.00 video frame)
Interleave, preload duratio : 500  ms
Title                       : Original
Service kind                : Complete Main


Джерело: &


 Трекер:    Зареєстрований   

Завантажити / скачати фільм українською



відео для новачків



 Зареєстрований:   2019-08-19 21:32
 Розмір:   1.45 GB 
 Оцінка фільму:   7.9/10 (Голосів: 9)
 ЗАЛИШАЙТЕСЬ ЯКОМОГА ДОВШЕ НА РОЗДАЧІ! ЗАВАНТАЖИВ САМ - ДАЙ ЗАВАНТАЖИТИ ІНШИМ!
   
Alex-doctor 
Новенький


З нами з: 17.02.13
Востаннє: 20.10.19
Повідомлень: 17

2019-08-20 12:30  
Даремно згаяний час...
krabapka 
Свій


З нами з: 15.08.15
Востаннє: 16.10.19
Повідомлень: 56

2019-08-20 17:28  
Норм, на один раз фоновим режимом під якусь справуHappy
Ваш часовий пояс: GMT + 2 Години

Нова тема   Відповісти