Ласкаво просимо до Акапулько / Welcome to Acapulco (2019) AVC Ukr/Eng | Sub Eng

Нові коментарі

Нова тема   Відповісти
Автор Повідомлення
11FrYkT 
Модератор відео


З нами з: 20.02.11
Востаннє: 07.03.21
Повідомлень: 7153

2019-08-19 10:16  
Ласкаво просимо до Акапулько / Welcome to Acapulco (2019) AVC Ukr/Eng | Sub Eng


Жанр: бойовик, комедія, трилер
Країна: Болгарія, Мексика, США



Кінокомпанія: Open Frames, Golden Ceiba Productions, Global Group
Режисер: Гільермо Іван
Актори: Вільям Болдуін, Майкл Медсен, Бредлі Грегг, Майк Кінгсбакер, Гільермо Іван

Сюжет:
Фільм «Ласкаво просимо в Акапулько» розповідає історію Метта Бута, який займається розробкою ігор. Останнім часом справи у нього йдуть не дуже, але шанс врятувати кар'єру є - для цього потрібно створити гру на Video Game Awards який пройде в Нью-Мексико. Але зустріч з другом в аеропорту сплутала всі його плани: несподівано для самого себе Метт виявляється в Акапулько. Справжня Мексика зустрічає ігроробів якось непривітно: маса народу вирішила, що він провіз через кордон якийсь пакет.
Цей пакет потрібен і федералам, і місцевим бандитам, так що за Меттом, який зовсім не був готовий до такого повороту подій, ганяються відразу всі. Зате у нього з'являється напарниця - справжнісінька фатальна красуня. І створюється справжнісінька змова, причому зовсім містечкового масштабу - спрямована вона на те, щоб похитнути все найсвятіше в США і в перспективі навіть похитнути устрій світу. Метт ж до кінця не приймає те, що відбувається всерйоз, просто наслідуючи персонажу з відеоігри - і це запорука успіху.


Тривалість: 01:28:36
Якість: AVC

Відео:
кодек:
розмір кадру: 1024 х 428
бітрейт: 1767 кб/с

Аудіо # 1:
мова: українська
озвучення: професійний дубляж | студія ААА-sound
кодек: 2.0 (стерео)
бітрейт: 192 кб/с
Інформація про дубляж
Переклад: Анастасія Піхунова
Режисер дубляжу та звукорежисер перезапису: Олександр Єфімов
Ролі дублювали: Іван Розін, Ганна Чиж, Ярослав Чорненький, Юлія Перенчук, Михайло Кришталь, Дмитро Гаврилов, Роман Чорний, Дарина Муращенко, Андрій Альохін, Антоніна Якушева, Катерина Буцька, Михайло Тишин, Ірина Грей, Олена Узлюк, Кирило Нікітенко та інші.

Фільм дубльовано студією ААА-sound у 2019 році на замовлення компанії UFD.
Аудіо # 2:
мова: англійська
озвучення: оригінал
кодек: 5.1
бітрейт: 448 кб/с

Субтитри:
мова: англійська
тип: програмні (м'які)
формат: *.srt
Info
Код:

General
Unique ID : 89586966452975186381328649542353824288 (0x4365D2773BCB8E3EF267201BAAAC2A20)
Complete name : D:\Завантаження\Welcome to Acapulco (2019) AVC [UKR_ENG] [Hurtom].
Format :
Format version : Version 4 / Version 2
File size : 1.49 GiB
Duration : 1 h 28 min
Overall bit rate : 2 409 kb/s
Movie name : Ласкаво просимо до Акапулько / Welcome to Acapulco (2019)
Encoded date : UTC 2021-02-23 11:24:54
Writing application : v51.0.0 ('I Wish') 32-bit
Writing library : libebml v1.4.0 + v1.6.2
Cover : Yes
Attachments : cover.jpg

Video
ID : 1
Format : AVC
Format/Info : Advanced Video Codec
Format profile : [email protected]
Format settings, CABAC : Yes
Format settings, RefFrames : 9 frames
Codec ID : V_MPEG4/ISO/AVC
Duration : 1 h 28 min
Bit rate : 1 767 kb/s
Width : 1 024 pixels
Height : 428 pixels
Display aspect ratio : 2.40:1
Frame rate mode : Constant
Frame rate : 23.976 (24000/1001) FPS
Color space : YUV
Chroma subsampling : 4:2:0
Bit depth : 8 bits
Scan type : Progressive
Bits/(Pixel*Frame) : 0.168
Stream size : 1.09 GiB (73%)
Writing library : core 142 r2431 ac76440
Encoding settings : cabac=1 / ref=9 / deblock=1:-1:-1 / analyse=0x3:0x113 / me=umh / subme=11 / psy=1 / psy_rd=1.00:0.15 / mixed_ref=1 / me_range=48 / chroma_me=1 / trellis=2 / 8x8dct=1 / cqm=0 / deadzone=21,11 / fast_pskip=0 / chroma_qp_offset=-5 / threads=12 / lookahead_threads=2 / sliced_threads=0 / nr=0 / decimate=1 / interlaced=0 / bluray_compat=0 / constrained_intra=0 / bframes=8 / b_pyramid=2 / b_adapt=2 / b_bias=0 / direct=1 / weightb=1 / open_gop=0 / weightp=2 / keyint=240 / keyint_min=23 / scenecut=40 / intra_refresh=0 / rc_lookahead=60 / rc=2pass / mbtree=1 / bitrate=1767 / ratetol=1.0 / qcomp=0.60 / qpmin=10 / qpmax=69 / qpstep=4 / cplxblur=20.0 / qblur=0.5 / vbv_maxrate=50000 / vbv_bufsize=62500 / nal_hrd=none / filler=0 / ip_ratio=1.40 / aq=1:1.00
Language : English
Default : Yes
Forced : No

Audio #1
ID : 2
Format : AC-3
Format/Info : Audio Coding 3
Format settings, Endianness : Big
Codec ID : A_AC3
Duration : 1 h 28 min
Bit rate mode : Constant
Bit rate : 192 kb/s
Channel(s) : 2 channels
Channel positions : Front: L R
Sampling rate : 48.0 kHz
Frame rate : 31.250 FPS (1536 SPF)
Bit depth : 16 bits
Compression mode : Lossy
Stream size : 122 MiB (8%)
Title : Dub [AAASound], 2.0 [stereo] 192 Kbps
Language : Ukrainian
Service kind : Complete Main
Default : Yes
Forced : Yes

Audio #2
ID : 3
Format : AC-3
Format/Info : Audio Coding 3
Format settings, Endianness : Big
Codec ID : A_AC3
Duration : 1 h 28 min
Bit rate mode : Constant
Bit rate : 448 kb/s
Channel(s) : 6 channels
Channel positions : Front: L C R, Side: L R, LFE
Sampling rate : 48.0 kHz
Frame rate : 31.250 FPS (1536 SPF)
Bit depth : 16 bits
Compression mode : Lossy
Stream size : 284 MiB (19%)
Title : Original, 5.1 448 kbps
Language : English
Service kind : Complete Main
Default : No
Forced : No

Text
ID : 4
Format : UTF-8
Codec ID : S_TEXT/UTF8
Codec ID/Info : UTF-8 Plain Text
Duration : 1 h 23 min
Bit rate : 68 b/s
Count of elements : 1259
Stream size : 41.9 KiB (0%)
Title : Full
Language : English
Default : No
Forced : No

Menu
00:00:00.000 : :Chapter 01
00:10:31.005 : :Chapter 02
00:24:09.114 : :Chapter 03
00:37:39.048 : :Chapter 04
00:48:53.805 : :Chapter 05
00:59:43.037 : :Chapter 06
01:11:37.167 : :Chapter 07
Скріншоти














Джерело:
Особиста оцінка: 0 - не дивився


 Трекер:    Зареєстрований   

Завантажити / скачати фільм українською



відео для новачків



 Зареєстрований:   2021-02-23 14:21
 Розмір:   1.49 GB 
 Оцінка фільму:   8.1/10 (Голосів: 38)
   
bot 
робот


З нами з: 30.09.07
Востаннє: 26.05.05
Повідомлень: 27346

2019-08-22 09:17  
Тему перенесено з Анонси релізів до форуму Фільми


11FrYkT

InkVisitor 
Новенький


З нами з: 26.09.15
Востаннє: 19.10.19
Повідомлень: 2

2019-08-23 20:43  
Неочікувано ненудний.
SrGr 
Свій


З нами з: 15.01.12
Востаннє: 04.03.21
Повідомлень: 110

2019-08-24 19:24  
Для чого щосекунди коментувати сюжет? Ще би закадрову ржачку додали, бо не зрозуміло, де "гумор"...
trymba 
Новенький


З нами з: 02.06.11
Востаннє: 05.03.21
Повідомлень: 5

2019-09-01 21:27  
Фільм, як на мене - повне лайно. Це суб'єктивна думка.
hatnyk 
Новенький


З нами з: 28.10.14
Востаннє: 04.03.21
Повідомлень: 19

2021-02-25 19:57  
обожнюю цей фільм, без напрягу, типу екшн+комедія+бойовик+драма)))) навіть здається що фарнцузи доклали до цього фільму свого гумору, двічі дивилася з інтервалом в рік
Ваш часовий пояс: GMT + 2 Години

Нова тема   Відповісти