Горбань (До бою!) / Le bossu (1997) 720p 2xUkr/Fre

Нові коментарі

Нова тема   Відповісти
Автор Повідомлення
Anonymous 







2019-08-19 07:10  
Горбань (До бою!) / Le bossu (1997) 720p 2xUkr/Fre

Горбань (До бою!) / Le bossu (1997) 720p 2xUkr/Fre


Жанр: драма, пригодницький
Країна: Франція, Італія, Німеччина



Кінокомпанія: Alicéléo, Canal+, Cecchi Gori Group Tiger Cinematografica
Режисер: Філіп де Брока / Philippe de Broca
Актори: Даніель Отой / Daniel Auteuil, Фабріс Лючіні / Fabrice Luchini, Венсан Перез / Vincent Perez, Марі Жілен / Marie Gillain, Ян Колет / Yann Collette, Жан-Франсуа Стевенен / Jean-François Stévenin, Дідьє Пен / Didier Pain, Чарлі Нельсон / Charlie Nelson, Клер Небу / Claire Nebout, Філіп Нуаре / Philippe Noiret та інші

Сюжет:
Шістнадцять років життя витратив шевальє Лаґардер, щоб помститися за смерть свого друга герцога Невера. Шістнадцять років, щоб підібратися до вбивці, який став фінансовим королем Парижа, на чиїй руці він своєю гострою шпагою накреслив вічне клеймо ганьби. Шістнадцять років, щоб домогтися торжества справедливості, зберегти честь і знайти кохання. Історія відчайдушного дуелянта і палкого коханця, яку донесли до нас людський поголос і придворні плітки.


Тривалість: 02:08:17
Якість: 720p
Відео:
кодек:
розмір кадру: 1280x544
бітрейт: 4435 кб/с

Аудіо # 1:
мова: українська
переклад: багатоголосий закадровий
кодек: 2.0
бітрейт: 192 кб/с

Аудіо # 2:
мова: українська
переклад: двоголосий закадровий
кодек: 2.0
бітрейт: 192 кб/с

Аудіо # 3:
мова: французька
переклад: оригінал
кодек: 2.0
бітрейт: 448 кб/с
Info
General
Unique ID : 228084994524124230917294626512793713346 (0xAB979273F64B0B5684F85B66956F3AC2)
Complete name : H:\Toloka\2019\Le bossu (1997) 720p.
Format :
Format version : Version 4
File size : 4.82 GiB
Duration : 2 h 8 min
Overall bit rate : 5 382 kb/s
Encoded date : UTC 2019-08-19 04:07:18
Writing application : v6.1.0 ('Old Devil') built on Mar 4 2013 09:10:42
Writing library : libebml v1.3.0 + v1.4.0

Video
ID : 1
Format : AVC
Format/Info : Advanced Video Codec
Format profile : [email protected]
Format settings : CABAC / 9 Ref Frames
Format settings, CABAC : Yes
Format settings, RefFrames : 9 frames
Codec ID : V_MPEG4/ISO/AVC
Duration : 2 h 8 min
Bit rate : 4 443 kb/s
Width : 1 280 pixels
Height : 544 pixels
Display aspect ratio : 2.35:1
Frame rate mode : Constant
Frame rate : 24.000 FPS
Color space : YUV
Chroma subsampling : 4:2:0
Bit depth : 8 bits
Scan type : Progressive
Bits/(Pixel*Frame) : 0.266
Stream size : 3.98 GiB (83%)
Title : FRE
Writing library : core 146 r2538 121396c
Encoding settings : cabac=1 / ref=9 / deblock=1:-1:-1 / analyse=0x3:0x113 / me=umh / subme=10 / psy=1 / psy_rd=1.00:0.15 / mixed_ref=1 / me_range=32 / chroma_me=1 / trellis=2 / 8x8dct=1 / cqm=0 / deadzone=21,11 / fast_pskip=1 / chroma_qp_offset=-3 / threads=6 / lookahead_threads=1 / sliced_threads=0 / nr=0 / decimate=1 / interlaced=0 / bluray_compat=0 / constrained_intra=0 / bframes=11 / b_pyramid=2 / b_adapt=2 / b_bias=0 / direct=1 / weightb=1 / open_gop=0 / weightp=2 / keyint=230 / keyint_min=23 / scenecut=40 / intra_refresh=0 / rc_lookahead=40 / rc=crf / mbtree=0 / crf=20.0 / qcomp=0.60 / qpmin=0 / qpmax=69 / qpstep=4 / vbv_maxrate=40000 / vbv_bufsize=50000 / crf_max=0.0 / nal_hrd=none / filler=0 / ip_ratio=1.40 / pb_ratio=1.30 / aq=1:1.00
Language : French
Default : Yes
Forced : No

Audio #1
ID : 2
Format : AC-3
Format/Info : Audio Coding 3
Commercial name : Dolby Digital
Codec ID : A_AC3
Duration : 2 h 8 min
Bit rate mode : Constant
Bit rate : 192 kb/s
Channel(s) : 2 channels
Channel layout : L R
Sampling rate : 48.0 kHz
Frame rate : 31.250 FPS (1536 SPF)
Bit depth : 16 bits
Compression mode : Lossy
Stream size : 176 MiB (4%)
Title : UKR (НТН)
Language : Ukrainian
Service kind : Complete Main
Default : Yes
Forced : Yes

Audio #2
ID : 3
Format : AC-3
Format/Info : Audio Coding 3
Commercial name : Dolby Digital
Codec ID : A_AC3
Duration : 2 h 8 min
Bit rate mode : Constant
Bit rate : 192 kb/s
Channel(s) : 2 channels
Channel layout : L R
Sampling rate : 48.0 kHz
Frame rate : 31.250 FPS (1536 SPF)
Bit depth : 16 bits
Compression mode : Lossy
Stream size : 176 MiB (4%)
Title : UKR (1+1)
Language : Ukrainian
Service kind : Complete Main
Default : No
Forced : No

Audio #3
ID : 4
Format : AC-3
Format/Info : Audio Coding 3
Commercial name : Dolby Digital
Codec ID : A_AC3
Duration : 2 h 8 min
Bit rate mode : Constant
Bit rate : 448 kb/s
Channel(s) : 6 channels
Channel layout : L R C LFE Ls Rs
Sampling rate : 48.0 kHz
Frame rate : 31.250 FPS (1536 SPF)
Bit depth : 16 bits
Compression mode : Lossy
Stream size : 411 MiB (8%)
Title : FRE
Language : French
Service kind : Complete Main
Default : No
Forced : No
Скріншоти










За українську доріжку від каналу 1+1 подяка п.: omm, Tanat13
За запис звуку з каналу НТН дякуємо пану Bohdan237
Особиста подяка пану denixx за надану матеріальну допомогу на підтримку цього і майбутніх релізів.
Джерело:


Срібний реліз (на рейтинг впливає 50% завантаженого)
 Трекер:    Зареєстрований   

Завантажити / скачати фільм українською



відео для новачків



 Зареєстрований:   2019-08-19 07:10
 Розмір:   4.82 GB 
 Оцінка фільму:   9.8/10 (Голосів: 6)
   
Інші релізи
   До бою! / Горбань / Le bossu (1997) sokeel  0 / 0   1.46 GB   2016-11-18 19:44 
   До бою! / Горбань / Le bossu (1997) Ukr/Fra omm  3 / 1   2.28 GB   2015-10-10 10:47 
Ваш часовий пояс: GMT + 2 Години

Нова тема   Відповісти