Нікіта (Її звали Нікіта) / Nikita / La Femme Nikita (1990) Remux 1080p 2хUkr/Fre | Sub Eng

Нові коментарі

Нова тема   Відповісти
Автор Повідомлення
MakRA 
VIP


З нами з: 11.11.18
Востаннє: 27.09.20
Повідомлень: 1120

2019-08-19 02:53  
Нікіта (Її звали Нікіта) / Nikita / La Femme Nikita (1990) Remux 1080p 2хUkr/Fre | Sub Eng


Альтернативні українські постери:


Жанр: екшн, трилер
Країна: Франція, Італія



Кінокомпанія: Gaumont, Les Films du Loup, Cecchi Gori Group Tiger Cinematografica
Режисер: Люк Бессон [Luc Besson]
Актори: Анн Парійо [Anne Parillaud], Жан-Юг Англад [Jean-Hugues Anglade], Чекі Каріо [Tcheky Karyo], Жанна Моро [Jeanne Moreau], Жан Рено [Jean Reno], Ролан Бланш [Roland Blanche], Марк Дюре [Marc Duret].

Сюжет:
Її засудили за вбивство. Її приговорили до смертної кари. Замість виконання вироку, їй запропонували зробити вибір між смертю та роботою на певну урядову організацію. Після вибору вона вже не належить собі. Віднині вона - глибоко законспірована машина знищення на службі держави, що пізнає всі тонкощі страшного ремесла. Прекрасна жінка з опустошеною душою і холодним серцем, вона стає кращим кіллером організації. Але саме зараз вона починає розуміти цінності людського життя. І саме зараз вперше в житті її наздоганяє кохання...
Цікаве про фільм:

Цей фільм Люка Бессона користувався великою популярністю не тільки у Франції, але і в інших країнах, наприклад, у Великій Британії та США. Пізніше Він був перезнятий як американський рімейк «Точка повернення», а також знято серіал з однойменною назвою.

Незвично величний і урочистий вид історії при найближчому розгляді цілком міг зійти за голлівудську видовищність. Не випадково Бессона, як і його соратників по необароко, особливо, Жан-Жака Бенекса, примітили саме в Голлівуді. «Нікіта» доводить, що Люк Бессон схильний створити тільки видимість постмодерністської традиції, неординарно обіграти розхожу шпигунську історію, майже протягом всієї дії ефектно і багатозначно розповідаючи про підготовку дівчини-злочинниці з рідкісним ім'ям Нікіта для якоїсь відповідальної і секретної місії.
З'ясовується, що ніякого другого сенсу в стрічці немає, режисерові не вистачає навіть іронії, щоб не так явно милуватися тим, як він зухвало поводиться з жанром, грає з фактурою, жонглює кінематографічними прийомами, немов ілюзіоніст обманює довірливих глядачів.

Анн Парійо, яка прославилася в «Нікіті» (тоді вона була дружиною Люка Бессона) отримала, крім «Сезара» за роль, також і нові запрошення, причому в різні країни, включно зі США.


Нагороди та номінації:

1991 Премія «Сезар» (16-та церемонія)

Найкращий фільм [Нікіта] Номінація
Найкращий режисер [Люк Бессон] Номінація
Найкраща акторка [Анн Парійо] Нагорода
Найперспективніший актор [Марк Дюре] Номінація
Найкраща операторська робота [Тьєррі Арбоґаст] Номінація
Найкращі декорації [Ден Вейл] Номінація
Найкращий монтаж [Олів'є Моффруа] Номінація
Найкращий звук [Мішель Барльє, П'єр Бев, Жерар Ломпс] Номінація
Найкраща музика до фільму [Ерік Серра] Номінація

1991 Давид ді Донателло

Найкращий іноземний фільм [Нікіта] Номінація
Найкраща іноземна акторка [Анн Парійо] Нагорода

1991 Премія Італійського національного синдикату кіножурналістів

Найкращий іноземний режисер [Люк Бессон] Номінація

1991 Національна рада кінокритиків США

Топ іноземних фільмів [Нікіта] Нагорода

1992 Золотий глобус

Найкращий фільм іноземною мовою Номінація.




Тривалість: 01:57:13
Якість: Remux 1080p
Відео:
кодек:
розмір кадру: 1920 х 1080
бітрейт: 25,9 Mб/с

Аудіо # 1:
мова: українська
переклад: двоголосий закадровий
кодек: 5.1
бітрейт: 384 кб/с
назву перекладено як: "Її звали Нікіта"
Про озвучення:
Ролі озвучили: Олег Лепенець і Людмила Ардельян.
Аудіо # 2:
мова: українська
переклад: двоголосий закадровий
кодек: 5.1
бітрейт: 384 кб/с
назву перекладено як: "Нікіта"
Про озвучення:
Ролі озвучили: Ярослав Чорненький і Ніна Касторф.
Аудіо # 3:
мова: українська
переклад: двоголосий закадровий
кодек: 2.0
бітрейт: 256 кб/с
назву перекладено як: "Нікіта"
Про озвучення:
Ролі озвучили: Ярослав Чорненький і Ніна Касторф.
Аудіо # 4:
мова: французька
переклад: оригінал
кодек: -HD MA 5.1
бітрейт: 3603 кб/с

Субтитри: (Full)
мова: англійська
тип: програмні (м'які)
формат: *.srt

Збережено оригінальні розділи, як на Blu-ray.
Info
General
Unique ID : 80207504564861020658255171386453077215 (0x3C57674A813F80A522F232E966E92CDF)
Complete name : F:\Екшн, кримінал\Nikita (La Femme Nikita) (1990) Remux 1080p 2хUkrFra Sub Eng [Hurtom].
Format :
Format version : Version 4
File size : 25.0 GiB
Duration : 1 h 57 min
Overall bit rate mode : Variable
Overall bit rate : 30.5 Mb/s
Movie name : Нікіта (Її звали Нікіта) / Nikita / La Femme Nikita (1990) Remux 1080p 2хUkr/Fra | Sub Eng [Hurtom]
Encoded date : UTC 2019-08-18 22:38:17
Writing application : v25.0.0 ('Prog Noir') 64-bit
Writing library : libebml v1.3.6 + v1.4.9

Video
ID : 1
Format : AVC
Format/Info : Advanced Video Codec
Format profile : [email protected]
Format settings : CABAC / 2 Ref Frames
Format settings, CABAC : Yes
Format settings, Reference fra : 2 frames
Codec ID : V_MPEG4/ISO/AVC
Duration : 1 h 57 min
Bit rate mode : Variable
Bit rate : 25.9 Mb/s
Width : 1 920 pixels
Height : 1 080 pixels
Display aspect ratio : 16:9
Frame rate mode : Constant
Frame rate : 23.976 (24000/1001) FPS
Color space : YUV
Chroma subsampling : 4:2:0
Bit depth : 8 bits
Scan type : Progressive
Bits/(Pixel*Frame) : 0.521
Stream size : 21.2 GiB (85%)
Title : Нікіта (Її звали Нікіта) / Nikita / La Femme Nikita (1990) Remux 1080p 2хUkr/Fra | Sub Eng [Hurtom]
Language : Ukrainian
Default : Yes
Forced : Yes

Audio #1
ID : 2
Format : AC-3
Format/Info : Audio Coding 3
Commercial name : Dolby Digital
Codec ID : A_AC3
Duration : 1 h 57 min
Bit rate mode : Constant
Bit rate : 384 kb/s
Channel(s) : 6 channels
Channel layout : L R C LFE Ls Rs
Sampling rate : 48.0 kHz
Frame rate : 31.250 FPS (1536 SPF)
Bit depth : 16 bits
Compression mode : Lossy
Stream size : 322 MiB (1%)
Title : DVO [1+1] 5.1
Language : Ukrainian
Service kind : Complete Main
Default : Yes
Forced : No

Audio #2
ID : 3
Format : AC-3
Format/Info : Audio Coding 3
Commercial name : Dolby Digital
Codec ID : A_AC3
Duration : 1 h 57 min
Bit rate mode : Constant
Bit rate : 384 kb/s
Channel(s) : 6 channels
Channel layout : L R C LFE Ls Rs
Sampling rate : 48.0 kHz
Frame rate : 31.250 FPS (1536 SPF)
Bit depth : 16 bits
Compression mode : Lossy
Stream size : 322 MiB (1%)
Title : DVO [СТБ] 5.1
Language : Ukrainian
Service kind : Complete Main
Default : No
Forced : No

Audio #3
ID : 4
Format : AC-3
Format/Info : Audio Coding 3
Commercial name : Dolby Digital
Codec ID : A_AC3
Duration : 1 h 57 min
Bit rate mode : Constant
Bit rate : 256 kb/s
Channel(s) : 2 channels
Channel layout : L R
Sampling rate : 48.0 kHz
Frame rate : 31.250 FPS (1536 SPF)
Bit depth : 16 bits
Compression mode : Lossy
Stream size : 215 MiB (1%)
Title : DVO [СТБ] 2.0
Language : Ukrainian
Service kind : Complete Main
Default : No
Forced : No

Audio #4
ID : 5
Format : XLL
Format/Info : Digital Theater Systems
Commercial name : -HD Master Audio
Codec ID : A_DTS
Duration : 1 h 57 min
Bit rate mode : Variable
Bit rate : 3 603 kb/s
Channel(s) : 6 channels
Channel layout : C L R Ls Rs LFE
Sampling rate : 48.0 kHz
Frame rate : 93.750 FPS (512 SPF)
Bit depth : 24 bits
Compression mode : Lossless
Stream size : 2.95 GiB (12%)
Title : Original -HD MA 5.1
Language : French
Default : No
Forced : No

Text
ID : 6
Format : UTF-8
Codec ID : S_TEXT/UTF8
Codec ID/Info : UTF-8 Plain Text
Duration : 1 h 51 min
Bit rate : 22 b/s
Count of elements : 762
Stream size : 18.2 KiB (0%)
Title : Eng (Full)
Language : English
Default : No
Forced : No

Menu
00:00:00.000 : en:Chapter 1
00:07:45.964 : en:Chapter 2
00:13:26.971 : en:Chapter 3
00:21:06.847 : en:Chapter 4
00:24:57.578 : en:Chapter 5
00:35:09.690 : en:Chapter 6
00:41:15.264 : en:Chapter 7
00:49:15.744 : en:Chapter 8
00:55:00.713 : en:Chapter 9
01:02:30.579 : en:Chapter 10
01:08:58.050 : en:Chapter 11
01:16:13.859 : en:Chapter 12
01:28:49.032 : en:Chapter 13
01:34:41.006 : en:Chapter 14
01:41:27.413 : en:Chapter 15
01:45:53.555 : en:Chapter 16
Скріншоти
Джерело: &
Подяка: українські доріжки - п. _oles - зведення, п. drakon87, п. Merdiff, п. robotron005 , п. Malamute, п. gig_Panas - запис з ТБ, українські постери - п. abodnya та п. drakon87
Особиста оцінка: 10 - без зайвих вагань рекомендую всім!


Золотий реліз (завантажене не впливає на рейтинг)
 Трекер:    Зареєстрований   

Завантажити / скачати фільм українською



відео для новачків



 Зареєстрований:   2019-08-19 02:53
 Розмір:   24.99 GB 
 Оцінка фільму:   9.2/10 (Голосів: 17)
   
ukraine2015 
Новенький


З нами з: 18.08.14
Востаннє: 26.09.20
Повідомлень: 24

2019-08-24 15:25  
Моя особиста оцінка - 2 бали з 10. Можливо, у 90-х це був цікавий бойовик, проте в 2019 - це феєрично нудне, і неправдоподібне кіно. Відразу видно, що кіно зняте ну дууже давно. Хоча, є безліч фільмів тієї ж епохи, які на порядок динамічніші і цікавіші. Той же ж Джеймс Бонд - навіть самий перший фільм можна переглядати і зараз з великим інтересом
MakRA 
VIP


З нами з: 11.11.18
Востаннє: 27.09.20
Повідомлень: 1120

2019-08-27 17:36  
ukraine2015 написано:
Можливо, у 90-х це був цікавий бойовик, проте в 2019 - це феєрично нудне, і неправдоподібне кіно

Все залежить, як дивитися на такі фільми, якщо через призму Марвелівських блокбастерів, то так, нудноHappy
В мене якось вживаються абсолютно різні фільми, а питання, що подивитися, залежить від настрою. Я наприклад, страшно сказати, жодного разу не подивився повністю супер-мега популярний "Аватар", навіть не тягне ( хоча не говорю, що фільм поганий, та й разів 5 починав дивитися), а того ж "Термінатора" Кемерона передивлюся ще не один раз.

antik_2008 
Релізер і модератор відео


З нами з: 20.10.08
Востаннє: 27.09.20
Повідомлень: 4153

2020-04-06 23:36  
MakRA Дякую! Гарний реліз і гарний фільм.
Deiv 
Поважний учасник


З нами з: 16.07.16
Востаннє: 27.09.20
Повідомлень: 182

2020-04-30 22:05  
Фільм загалом хороший, але кінцівка змазана - там де появляється Рено . Тому на 7.
Ваш часовий пояс: GMT + 2 Години

Нова тема   Відповісти