Викрадачі тіл / Body Snatchers (1993) Remux 1080p Ukr/Eng | Sub Eng

Нові коментарі

Нова тема   Відповісти
Автор Повідомлення
MakRA 
VIP


З нами з: 11.11.18
Востаннє: 28.09.20
Повідомлень: 1120

2019-08-19 00:38  
Викрадачі тіл / Body Snatchers (1993) Remux 1080p Ukr/Eng | Sub Eng



Жанр: фантастика, жахи
Країна: США



Кінокомпанія: Dorset Productions, Robert H. Solo Productions, Warner Bros.
Режисер: Абель Феррара [Abel Ferrara]
Актори: Габріель Анвар [Gabrielle Anwar], Террі Кінні [Terry Kinney], Біллі Уерт [Billy Wirth], Райллі Мерфі [Reilly Murphy], Мег Тіллі [Meg Tilly], Крістін Еліз [Christine Elise], Р. Лі Ермі [R. Lee Ermey], Кетлін Дойл [Kathleen Doyle], Форест Вітакер [Forest Whitaker], Дж. Елвіс Філліпс [G. Elvis Phillips].

Сюжет:
Марті Мелоун — дочка біолога, на літні канікули їде разом з батьком, мачухою і зведеним братом на американську військову базу, на якій її батько буде інспектувати деякі токсичні продукти наявні на базі. На автозаправці Марті налякана солдатом, який говорить їй не спати, бо «вони» забирають, коли спиш...

Фільм, знятий за мотивами роману Джека Фінні «Викрадачі тіл» (англ. The Body Snatchers) 1955 року.



Тривалість: 01:27:08
Якість: Remux 1080p
Відео:
кодек:
розмір кадру: 1920 х 1080
бітрейт: 34,8 Mб/с

Аудіо # 1:
мова: українська
переклад: багатоголосий закадровий | студія ТВ+
кодек: 2.0
бітрейт: 192 кб/с
Про озвучення:
Ролі озвучили:Михайло Жонін, Михайло Тишин і один жіночий.
Аудіо # 2:
мова: англійська
переклад: оригінал
кодек: -HD MA 5.1
бітрейт: 4135 кб/с

Субтитри: (Full)
мова: англійська
тип: пререндерні
формат: *.pgs
Info
General
Unique ID : 26318499828455432375362902568267988 (0x5119A2B699419C70947B7D090F0D4)
Complete name : F:\Фантастика\Body Snatchers. Collection Remux 1080p\Body Snatchers (1993) Remux 1080p UkrEng Sub Eng [Hurtom].
Format :
Format version : Version 4
File size : 23.8 GiB
Duration : 1 h 27 min
Overall bit rate mode : Variable
Overall bit rate : 39.2 Mb/s
Movie name : Викрадачі тіл / Body Snatchers (1993) Remux 1080p Ukr/Eng | Sub Eng [Hurtom]
Encoded date : UTC 2019-08-18 17:01:07
Writing application : v25.0.0 ('Prog Noir') 64-bit
Writing library : libebml v1.3.6 + v1.4.9

Video
ID : 1
Format : AVC
Format/Info : Advanced Video Codec
Format profile : [email protected]
Format settings : CABAC / 4 Ref Frames
Format settings, CABAC : Yes
Format settings, Reference fra : 4 frames
Format settings, GOP : M=3, N=12
Codec ID : V_MPEG4/ISO/AVC
Duration : 1 h 27 min
Bit rate mode : Variable
Bit rate : 34.8 Mb/s
Maximum bit rate : 38.0 Mb/s
Width : 1 920 pixels
Height : 1 080 pixels
Display aspect ratio : 16:9
Frame rate mode : Constant
Frame rate : 23.976 (24000/1001) FPS
Color space : YUV
Chroma subsampling : 4:2:0
Bit depth : 8 bits
Scan type : Progressive
Bits/(Pixel*Frame) : 0.700
Stream size : 21.2 GiB (89%)
Title : Body Snatchers (1993) Remux 1080p Ukr/Eng | Sub Eng [Hurtom]
Language : Ukrainian
Default : Yes
Forced : Yes

Audio #1
ID : 2
Format : AC-3
Format/Info : Audio Coding 3
Commercial name : Dolby Digital
Codec ID : A_AC3
Duration : 1 h 27 min
Bit rate mode : Constant
Bit rate : 192 kb/s
Channel(s) : 2 channels
Channel layout : L R
Sampling rate : 48.0 kHz
Frame rate : 31.250 FPS (1536 SPF)
Bit depth : 16 bits
Compression mode : Lossy
Stream size : 120 MiB (0%)
Title : MVO [ICTV] 2.0 | студія ТВ+
Language : Ukrainian
Service kind : Complete Main
Default : Yes
Forced : Yes

Audio #2
ID : 3
Format : XLL
Format/Info : Digital Theater Systems
Commercial name : -HD Master Audio
Codec ID : A_DTS
Duration : 1 h 27 min
Bit rate mode : Variable
Bit rate : 4 135 kb/s
Channel(s) : 6 channels
Channel layout : C L R Ls Rs LFE
Sampling rate : 48.0 kHz
Frame rate : 93.750 FPS (512 SPF)
Bit depth : 24 bits
Compression mode : Lossless
Stream size : 2.52 GiB (11%)
Title : Original -HD MA 5.1
Language : English
Default : No
Forced : No

Text
ID : 4
Format : PGS
Muxing mode : zlib
Codec ID : S_HDMV/PGS
Codec ID/Info : Picture based subtitle format used on BDs/HD-DVDs
Duration : 1 h 20 min
Bit rate : 56.1 kb/s
Count of elements : 2012
Stream size : 32.3 MiB (0%)
Title : Eng (Full)
Language : English
Default : No
Forced : No
Скріншоти
Джерело: &
Величезна подяка п. karvai0, п. robotron005, п. Hulk1987 - за запис звуку, і п. imonko - за синхронізацію.
Особиста оцінка: 10 - без зайвих вагань рекомендую всім!


Золотий реліз (завантажене не впливає на рейтинг)
 Трекер:    Зареєстрований   

Завантажити / скачати фільм українською



відео для новачків



 Зареєстрований:   2019-08-19 00:38
 Розмір:   23.85 GB 
 Оцінка фільму:   9.6/10 (Голосів: 5)
   
Інші релізи
   Викрадачі тіл / Body Snatchers (1993) AVC Ukr/Eng | Sub Eng staf777  4 / 0   1.81 GB   2018-05-29 17:01 
   Викрадачі тіл / Body Snatchers (1993) 720p Ukr/Eng staf777  3 / 0   4.74 GB   2016-11-27 17:22 
   Викрадачі тіл / Body Snatchers (1993) Ukr/Eng |Sub Eng imonko  2 / 0   1.46 GB   2012-01-31 12:23 
Ваш часовий пояс: GMT + 2 Години

Нова тема   Відповісти