Секрети домашніх тварин 2 / The Secret Life of Pets 2 (2019)

Нові коментарі

Нова тема   Відповісти
Автор Повідомлення
Anonymous 







2019-08-18 18:54  
Секрети домашніх тварин 2 / The Secret Life of Pets 2 (2019)

Секрети домашніх тварин 2 / The Secret Life of Pets 2 (2019)
Альтернативні постери

















Жанр: комедія, мультфільм, пригодницький, сімейний
Країна: США, Франція, Японія



Кінокомпанія: Universal Pictures, Illumination Entertainment, Dentsu
Режисер: Кріс Рено, Джонатан дель Валь
Актори: Петтон Освальт, Кевін Харт, Гаррісон Форд, Ерік Стоунстріт, Дженні Слейт, Тіффані Хеддіш, Лейк Белл, Дена Карві, Боббі Мойнахан, Геннібал Бересс

Сюжет:
Славетні домашні улюбленці повертаються! Ми й не підозрюємо, скільки усього вони встигають, коли нас немає поруч. Відомі герої і нові «темні конячки», ще більше карколомних пригод і багато пухнастих секретів у комедії для всієї родини!
Офіційні українські трейлери:

"Макс"


"Як бути кицькою"



Рейтинг MPAA: PG - рекомендується присутність батьків
Вікова категорія: 2+
Тривалість: 01:26:04
Якість:

Відео:
кодек:
розмір кадру: 704х384
бітрейт: 1976 кб/с

Аудіо:
мова: українська
переклад: професійний дубльований | студія LeDoyen
кодек: 2.0 [стерео]
бітрейт: 192 кб/с
Інформація про дубляж











Info
Код:
General
Complete name               : The Secret Life of Pets 2 (2019) [Ukr] [Hurtom].avi
Format                      : AVI
Format/Info                 : Audio Video Interleave
File size                   : 1.31 GiB
Duration                    : 1 h 26 min
Overall bit rate            : 2 177 kb/s
Movie name                  : Секрети домашніх тварин 2 / The Secret Life of Pets 2 (2019) [Ukr] [Hurtom]
Writing application         : VirtualDubModUkr 1.5.10.2 (build 2542/release)
Writing library             : VirtualDubMod build 2542/release

Video
ID                          : 0
Format                      : MPEG-4 Visual
Format profile              : Advanced [email protected]
Format settings             : BVOP2 / Custom Matrix
Format settings, BVOP       : 2
Format settings, QPel       : No
Format settings, GMC        : No warppoints
Format settings, Matrix     : Custom
Codec ID                    :
Codec ID/Hint               :
Duration                    : 1 h 26 min
Bit rate                    : 1 976 kb/s
Width                       : 704 pixels
Height                      : 384 pixels
Display aspect ratio        : 1.85:1
Frame rate                  : 23.976 (24000/1001) FPS
Color space                 : YUV
Chroma subsampling          : 4:2:0
Bit depth                   : 8 bits
Scan type                   : Progressive
Compression mode            : Lossy
Bits/(Pixel*Frame)          : 0.305
Stream size                 : 1.19 GiB (91%)
Writing library             : 73

Audio
ID                          : 1
Format                      : AC-3
Format/Info                 : Audio Coding 3
Commercial name             : Dolby Digital
Codec ID                    : 2000
Duration                    : 1 h 26 min
Bit rate mode               : Constant
Bit rate                    : 192 kb/s
Channel(s)                  : 2 channels
Channel layout              : L R
Sampling rate               : 48.0 kHz
Frame rate                  : 31.250 FPS (1536 SPF)
Bit depth                   : 16 bits
Compression mode            : Lossy
Stream size                 : 118 MiB (9%)
Alignment                   : Split across interleaves
Interleave, duration        : 42  ms (1.00 video frame)
Interleave, preload duratio : 500  ms
Title                       : Ukr Dub [LeDoyen, stereo]
Service kind                : Complete Main



Джерело: &

08.09.2019 реліз оновлено до 'у, українську доріжку замінено з моно Line на стерео


 Трекер:    Зареєстрований   

Завантажити / скачати мультфільм українською



відео для новачків



 Зареєстрований:   2019-09-08 12:05
 Розмір:   1.31 GB 
 Оцінка мультфільму:   9.7/10 (Голосів: 217)
 ЗАЛИШАЙТЕСЬ ЯКОМОГА ДОВШЕ НА РОЗДАЧІ! ЗАВАНТАЖИВ САМ - ДАЙ ЗАВАНТАЖИТИ ІНШИМ!
   
Prybulets 
Свій


З нами з: 10.09.11
Востаннє: 19.10.20
Повідомлень: 75

2019-08-21 22:15  
Доволі потішний мульт. А наша озвучка просто неперевершена!
RomahaDj 
Свій


З нами з: 17.12.12
Востаннє: 19.10.20
Повідомлень: 57

2019-08-27 15:17  
Хороший мультик! А озвучення українською - взагалі бомбезне!
ZiC 
Поважний учасник


З нами з: 09.03.09
Востаннє: 10.10.20
Повідомлень: 216

2019-08-28 08:14  
В кінотеатрі дивився з дівчиною. Дуже сподобався. Чекав коли з'явиться тут Happy
В кінотеатрі більше дорослі сміялись ніж діти Happy

Anonymous 







2019-09-08 12:07  
Реліз оновлено до 'у, українську доріжку замінено з моно Line на стерео.
ccjjhh 
Новенький


З нами з: 04.01.18
Востаннє: 18.10.20
Повідомлень: 1

2019-09-10 16:09  
Дитина реготала увесь мульт, а це найкращий відгук )
ukrnet 
Свій


З нами з: 03.01.14
Востаннє: 15.10.20
Повідомлень: 98

2019-09-13 14:08  
відпадно зачотний в кінці реп-трек від кролика про панду ))))
BiOZ 
Новенький


З нами з: 22.04.18
Востаннє: 17.10.20
Повідомлень: 4

2019-09-14 14:55  
Дужк добре 11з10ти, переклад соловїною просто геніальний і не перевершенний, дуже дякую!
t850 
VIP


З нами з: 03.10.12
Востаннє: 07.12.19
Повідомлень: 272

2019-09-23 20:09  
Мульт класний та смішний, однозначно.
Можливо більше за рахунок перекладу - моцно, хай йому пес.

Djohnnikey 
VIP


З нами з: 01.10.15
Востаннє: 19.10.20
Повідомлень: 418

2019-11-15 12:45  
Не в захваті від мульта. Загалом, начебто не гірше за першу частину, й це плюс, але й перша частина була не фантастичною.
Старого пса з діалектом я взагалі не розумів, чому не розмовляє дитинча тигра - теж не ясно (так є відмазка типу "я не розумію мови диких тварин", але вовки теж дикі, однак вони розмовляють й їх всі розуміють), Пушок залишається найбільш яскравим персонажем, тільки наче у перший частині він не був таким боягузом. Чому кастрована тварина у першій раз в житті потрапляє до ветеринару - хто його зна (певно його вдома кастрували)...
Загалом на 1 раз норм, але не більше того.
6 з 10.

stopanko 
Частий відвідувач


З нами з: 30.10.09
Востаннє: 30.07.20
Повідомлень: 30

2019-11-26 18:28  
Djohnnikey
Мені теж перша частина не зайщла. Занадто плоскі і жарти і історія і персонажі. Важко було досидіти до кінця сеансу. Мультик однозначно дітям сподобається но не біільше того.

demass 
Свій


З нами з: 04.12.16
Востаннє: 06.10.20
Повідомлень: 64

2020-01-01 15:46  
Класний мультик. Переклад - бімба!
points 
Частий відвідувач


З нами з: 23.08.16
Востаннє: 25.07.20
Повідомлень: 34

2020-05-04 08:07  
Хороший мультик!
Ваш часовий пояс: GMT + 2 Години

Нова тема   Відповісти