Секрети домашніх тварин 2 / The Secret Life of Pets 2 (2019) 1080p Ukr/Eng | Sub Eng

Нові коментарі

Нова тема   Відповісти
Автор Повідомлення
Anonymous 







2019-08-18 17:06  
Секрети домашніх тварин 2 / The Secret Life of Pets 2 (2019) 1080p Ukr/Eng | Sub Eng

Секрети домашніх тварин 2 / The Secret Life of Pets 2 (2019) 1080p Ukr/Eng | Sub Eng
Альтернативні постери

















Жанр: комедія, мультфільм, пригодницький, сімейний
Країна: США, Франція, Японія



Кінокомпанія: Universal Pictures, Illumination Entertainment, Dentsu
Режисер: Кріс Рено, Джонатан дель Валь
Актори: Петтон Освальт, Кевін Харт, Гаррісон Форд, Ерік Стоунстріт, Дженні Слейт, Тіффані Хеддіш, Лейк Белл, Дена Карві, Боббі Мойнахан, Геннібал Бересс

Сюжет:
Славетні домашні улюбленці повертаються! Ми й не підозрюємо, скільки усього вони встигають, коли нас немає поруч. Відомі герої і нові «темні конячки», ще більше карколомних пригод і багато пухнастих секретів у комедії для всієї родини!
Офіційні українські трейлери:

"Макс"


"Як бути кицькою"



Рейтинг MPAA: PG - рекомендується присутність батьків
Вікова категорія: 2+
Тривалість: 01:26:03
Якість: 1080p

Відео:
кодек:
розмір кадру: 1920 х 1040
бітрейт: 9972 кб/с

Аудіо # 1:
мова: українська
переклад: професійний дубльований | студія LeDoyen
кодек: 2.0 [стерео]
бітрейт: 192 кб/с
Інформація про дубляж











Аудіо # 2:
мова: англійська
переклад: оригінал
кодек: 5.1
бітрейт: 640 кб/с

Субтитри # 1:
мова: українська (форсовані)
тип: програмні (м'які)
формат: *.srt

Субтитри # 2-3:
мова: англійська (повні, SDH)
тип: програмні (м'які)
формат: *.srt

Збережено оригінальні розділи, як на Blu-ray
Info, log, примітка від автора ріпу:
Код:

Complete name               : The Secret Life of Pets 2 (2019) [Ukr,Eng sub.Eng] 1080p [Hurtom].
Format                      :
Format version              : Version 4
File size                   : 6.50 GiB
Duration                    : 1 h 26 min
Overall bit rate            : 10.8 Mb/s
Movie name                  : Секрети домашніх тварин 2 / The Secret Life of Pets 2 (2019) [Ukr,Eng sub.Eng] 1080p [Hurtom]
Encoded date                : UTC 2019-09-08 08:17:52
Writing application         : v37.0.0 ('Leave It') 64-bit
Writing library             : libebml v1.3.9 + v1.5.2
Cover                       : Yes
Attachments                 : cover.jpg

Video
ID                          : 1
Format                      : AVC
Format/Info                 : Advanced Video Codec
Format profile              : [email protected]
Format settings             : CABAC / 4 Ref Frames
Format settings, CABAC      : Yes
Format settings, Reference  : 4 frames
Codec ID                    : V_MPEG4/ISO/AVC
Duration                    : 1 h 26 min
Bit rate                    : 9 972 kb/s
Width                       : 1 920 pixels
Height                      : 1 040 pixels
Display aspect ratio        : 1.85:1
Frame rate mode             : Constant
Frame rate                  : 23.976 FPS
Color space                 : YUV
Chroma subsampling          : 4:2:0
Bit depth                   : 8 bits
Scan type                   : Progressive
Bits/(Pixel*Frame)          : 0.208
Stream size                 : 5.99 GiB (92%)
Title                       : Секрети домашніх тварин 2 / The Secret Life of Pets 2 (2019) 1080p [ExKinoRay]
Writing library             : core 157 r2945 72db437
Encoding settings           : cabac=1 / ref=4 / deblock=1:-2:-2 / analyse=0x3:0x113 / me=umh / subme=10 / psy=1 / psy_rd=1.00:0.00 / mixed_ref=1 / me_range=32 / chroma_me=1 / trellis=2 / 8x8dct=1 / cqm=0 / deadzone=21,11 / fast_pskip=0 / chroma_qp_offset=-2 / threads=6 / lookahead_threads=1 / sliced_threads=0 / nr=0 / decimate=0 / interlaced=0 / bluray_compat=0 / constrained_intra=0 / bframes=10 / b_pyramid=2 / b_adapt=2 / b_bias=0 / direct=3 / weightb=1 / open_gop=0 / weightp=1 / keyint=240 / keyint_min=23 / scenecut=40 / intra_refresh=0 / rc_lookahead=75 / rc=crf / mbtree=0 / crf=16.5 / qcomp=0.60 / qpmin=0 / qpmax=69 / qpstep=4 / vbv_maxrate=50000 / vbv_bufsize=62500 / crf_max=0.0 / nal_hrd=none / filler=0 / ip_ratio=1.30 / pb_ratio=1.20 / aq=3:0.70 / zones=0,588,q=26/112448,113833,q=12/113834,113870,q=28/115160,123800,q=26
Language                    : English
Default                     : Yes
Forced                      : No

Audio #1
ID                          : 2
Format                      : AC-3
Format/Info                 : Audio Coding 3
Commercial name             : Dolby Digital
Codec ID                    : A_AC3
Duration                    : 1 h 26 min
Bit rate mode               : Constant
Bit rate                    : 192 kb/s
Channel(s)                  : 2 channels
Channel layout              : L R
Sampling rate               : 48.0 kHz
Frame rate                  : 31.250 FPS (1536 SPF)
Bit depth                   : 16 bits
Compression mode            : Lossy
Stream size                 : 118 MiB (2%)
Title                       : Dub [LeDoyen], 2.0 [stereo] 192 Kbps
Language                    : Ukrainian
Service kind                : Complete Main
Default                     : Yes
Forced                      : Yes

Audio #2
ID                          : 3
Format                      : AC-3
Format/Info                 : Audio Coding 3
Commercial name             : Dolby Digital
Codec ID                    : A_AC3
Duration                    : 1 h 26 min
Bit rate mode               : Constant
Bit rate                    : 640 kb/s
Channel(s)                  : 6 channels
Channel layout              : L R C LFE Ls Rs
Sampling rate               : 48.0 kHz
Frame rate                  : 31.250 FPS (1536 SPF)
Bit depth                   : 16 bits
Compression mode            : Lossy
Stream size                 : 394 MiB (6%)
Title                       : Original, 5.1 640 Kbps
Language                    : English
Service kind                : Complete Main
Default                     : No
Forced                      : No

Text #1
ID                          : 4
Format                      : UTF-8
Codec ID                    : S_TEXT/UTF8
Codec ID/Info               : UTF-8 Plain Text
Duration                    : 1 h 20 min
Bit rate                    : 0 b/s
Count of elements           : 2
Stream size                 : 126 Bytes (0%)
Title                       : Ukr Forced
Language                    : Ukrainian
Default                     : Yes
Forced                      : Yes

Text #2
ID                          : 5
Format                      : UTF-8
Codec ID                    : S_TEXT/UTF8
Codec ID/Info               : UTF-8 Plain Text
Duration                    : 1 h 25 min
Bit rate                    : 53 b/s
Count of elements           : 1324
Stream size                 : 33.3 KiB (0%)
Title                       : Eng Full
Language                    : English
Default                     : No
Forced                      : No

Text #3
ID                          : 6
Format                      : UTF-8
Codec ID                    : S_TEXT/UTF8
Codec ID/Info               : UTF-8 Plain Text
Duration                    : 1 h 25 min
Bit rate                    : 77 b/s
Count of elements           : 1924
Stream size                 : 48.5 KiB (0%)
Title                       : Eng SDH
Language                    : English
Default                     : No
Forced                      : No

Menu
00:00:00.000                : en:Chapter 01
00:05:34.542                : en:Chapter 02
00:10:07.815                : en:Chapter 03
00:13:26.305                : en:Chapter 04
00:16:39.790                : en:Chapter 05
00:19:56.945                : en:Chapter 06
00:24:10.073                : en:Chapter 07
00:28:15.735                : en:Chapter 08
00:30:54.269                : en:Chapter 09
00:35:15.113                : en:Chapter 10
00:39:55.976                : en:Chapter 11
00:45:47.327                : en:Chapter 12
00:49:51.822                : en:Chapter 13
00:56:54.994                : en:Chapter 14
00:58:35.220                : en:Chapter 15
01:02:48.931                : en:Chapter 16
01:07:16.615                : en:Chapter 17
01:12:48.822                : en:Chapter 18
01:15:21.808                : en:Chapter 19
01:18:10.018                : en:Chapter 20


Код:
[info]: frame I:988 Avg QP:13.95 size:275116
[info]: frame P:35108 Avg QP:15.87 size: 94813
[info]: frame B:87705 Avg QP:17.19 size: 32338


Примітка від автора ріпу написано:
Used fillmargins and balanceborders to fix dirty lines.
Used zones on few dark scenes with banding.



Джерело: &

08.09.2019 реліз оновлено до 'у, українську доріжку замінено з моно Line на стерео


 Трекер:    Зареєстрований   

Завантажити / скачати мультфільм українською



відео для новачків



 Зареєстрований:   2019-09-08 10:51
 Розмір:   6.5 GB 
 Оцінка мультфільму:   9.5/10 (Голосів: 101)
 ЗАЛИШАЙТЕСЬ ЯКОМОГА ДОВШЕ НА РОЗДАЧІ! ЗАВАНТАЖИВ САМ - ДАЙ ЗАВАНТАЖИТИ ІНШИМ!
   
dimon-2018 
VIP


З нами з: 06.05.18
Востаннє: 08.03.21
Повідомлень: 580

2019-08-18 20:56  
Anonymous, тут більше відомо про те, хто озвучив персонажів.
Секрети домашніх тварин 2 (2019)








11FrYkT 
Модератор відео


З нами з: 20.02.11
Востаннє: 08.03.21
Повідомлень: 7153

2019-08-19 07:33  
dimon-2018 написано:
Anonymous, тут більше відомо про те, хто озвучив персонажів.

Саме смішно, що ті хто озвучував чимось схожі на персонажів

little_bru 
Новенький


З нами з: 22.04.09
Востаннє: 08.03.21
Повідомлень: 8

2019-08-19 14:22  
Про Євгена Малуху забули.. ака вуйко Батя)))
shoorik007 
Свій


З нами з: 20.09.14
Востаннє: 08.03.21
Повідомлень: 93

2019-08-20 20:23  
Класний мультфільм, і прикольна озвучка ))
autumnblaze 
Новенький


З нами з: 15.04.19
Востаннє: 05.03.21
Повідомлень: 5

2019-08-24 21:32  
shoorik007
Та ж так )

Коти на хаті & лазерна цятка – бімба Happy

Anonymous 







2019-09-08 10:52  
Реліз оновлено до 'у, українську доріжку замінено з моно Line на стерео
RAZE007 
Новенький


З нами з: 19.03.18
Востаннє: 24.01.21
Повідомлень: 5

2019-09-08 12:37  
Класний мульт!
Isabou 
Новенький


З нами з: 14.07.15
Востаннє: 29.11.20
Повідомлень: 3

2019-11-03 23:07  
Що це за дебільна озвучка? Яке Слава Україні? Який вуйко-пес? Чому Сєргєй розмовляє то українською, то російською? Переклад - значить нормальний переклад. А це якась пародія. Та й "молодіжні словечки" типу: "децл" і т.д. взагалі не в тему. Вони не пасують до української мови і чути їх тут абсурдно. Додивилася до 41 хвилини і не витримала, вимкнула плеєр і видалила цей ідіотизм. Краще вже з рос. перекладом, але з нормальним. Ті хто переклав - зарвалися. Пам'ятайте: переклад - це не адаптація і не інтерпретація на власний розсуд.
irusyaal18 
Новенький


З нами з: 22.02.14
Востаннє: 19.01.21
Повідомлень: 1

2020-01-04 22:33  
сподобалась озвучка, хто озвучував?
Anonymous 







2020-01-04 22:55  
irusyaal18 написано:
хто озвучував?

в описі все вказано

gunsmac 
Новенький


З нами з: 10.12.15
Востаннє: 07.03.21
Повідомлень: 1

2020-01-05 15:30  
Isabou написано:
Isabou

Ти [образу видалено] - тобі українська мова вухо ріже ? [лайку видалено] в расєю адаптовану для таких естетів із челябінска.

Ваш часовий пояс: GMT + 2 Години

Нова тема   Відповісти