Тварина / The Animal (2001) AVC 3xUkr/Eng | Sub Eng

Нові коментарі

Нова тема   Відповісти
Автор Повідомлення
Anonymous 







2019-08-16 21:12  
Тварина / The Animal (2001) AVC 3xUkr/Eng | Sub Eng



Жанр: комедія
Країна: США



Кінокомпанія: Revolution Studios, Happy Madison Productions
Режисер: Люк Ґрінфілд / Luke Greenfield
Актори: Роб Шнайдер / Rob Schneider, Коллін Гескелл / Colleen Haskell, Джон К. Маꥳнлі / John C. McGinley, Едвард Еснер / Edward Asner, Майкл Кейтон / Michael Caton, Луїс Ломбарді / Louis Lombardi, Ґай Торрі / Guy Torry, Боб Рубін / Bob Rubin, Пілар Шнайдер / Pilar Schneider, Скотт Уїлсон / Scott Wilson, Реймонд Ма / Raymond Ma, Майкл Пападжон / Michael Papajohn, Рон Роґґе / Ron Roggé, Голлі Мейплс / Holly Maples, Генріетта Мантела / Henriette Mantel, Джеремі Крамер / Jeremy Kramer, Робб Скайлер / Robb Skyler, Філіп Болден / Philip Bolden, Тіммі Дітерс / Timmy Deters, Мітч Голлман / Mitch Holleman, Чарлі Стюарт / Charlie Stewart, Тім Герцоґ / Tim Herzog, Адам Сендлер / Adam Sandler, Фред Столлер / Fred Stoller, Ноель Ґуґлемі / Noel Gugliemi та інші

Сюжет:
Які дивні шляхи ведуть часом до здійснення бажань! Простак Марвін все життя мріяв стати крутим поліцейським, та марно. Але хоч не було щастя, та нещастя помогло: потрапивши в автокатастрофу, герой був врятований від смерті трішки божевільним доктором Вайлдером.

Зіпсовані внутрішні органи Марвіна той замінив на органи різних тварин, завдяки чому його пацієнт не тільки видужав, але й виявив таланти своїх донорів. Використовуючи нові можливості, герой нарешті стає справжнім суперкопом, але... Разом з відмінними рефлексами, силою і витривалістю Марвін одержав від звірів і їх дрімучі інстинкти, які раптово й завжди невчасно проявляються!
Офіційний трейлер:


Рейтинг MPAA: PG-13 - дітям до 13 років перегляд не бажаний
Вікова категорія: 12+

Тривалість: 01:19:46
Якість: AVC
Відео:
кодек:
розмір кадру: 1024 х 576
бітрейт: 2400 кб/с

Аудіо # 1:
мова: українська
переклад: багатоголосий закадровий
кодек: 2.0 [стерео]
бітрейт: 192 кбіт/с

Аудіо # 2:
мова: українська
переклад: двоголосий закадровий
ролі озвучили: Андрій Альохін і Наталя Романько-Кисельова?
кодек: 2.0
бітрейт: 192 кбіт/с

Аудіо # 3:
мова: українська
переклад: багатоголосий закадровий
ролі озвучили: Роб Шнайдер — Ярослав Чорненький, Анатолій Пашнін, Джон Маꥳнлі — Володимир Терещук, Наталя Поліщук?
кодек: 2.0
бітрейт: 192 кбіт/с
примітка: ідентична озвучка була також по К1

Аудіо # 3:
мова: англійська
переклад: оригінал
кодек: 5.1
бітрейт: 448 кбіт/с

Субтитри # 1:
мова: українська (форсовані на дві неозвучені фрази після титрів)
тип: програмні (м'які)
формат: *.srt

Субтитри # 2:
мова: англійська
тип: програмні (м'які)
формат: *.srt

Збережено оригінальні розділи
Info
Код:

Complete name               : The Animal (2001) [3xUkr,Eng sub.Eng] AVC [Hurtom].
Format                      :
Format version              : Version 4
File size                   : 1.91 GiB
Duration                    : 1 h 19 min
Overall bit rate            : 3 434 kb/s
Movie name                  : Тварина / The Animal (2001) [3xUkr,Eng sub.Eng] AVC [Hurtom]
Encoded date                : UTC 2019-08-19 19:19:22
Writing application         : v36.0.0 ('Is That Jazz?') 64-bit
Writing library             : libebml v1.3.9 + v1.5.2
Cover                       : Yes
Attachments                 : cover.jpg / cover.jpg

Video
ID                          : 1
Format                      : AVC
Format/Info                 : Advanced Video Codec
Format profile              : [email protected]
Format settings             : CABAC / 10 Ref Frames
Format settings, CABAC      : Yes
Format settings, Reference  : 10 frames
Codec ID                    : V_MPEG4/ISO/AVC
Duration                    : 1 h 19 min
Bit rate                    : 2 409 kb/s
Width                       : 1 024 pixels
Height                      : 576 pixels
Display aspect ratio        : 16:9
Frame rate mode             : Constant
Frame rate                  : 25.000 FPS
Color space                 : YUV
Chroma subsampling          : 4:2:0
Bit depth                   : 8 bits
Scan type                   : Progressive
Bits/(Pixel*Frame)          : 0.163
Stream size                 : 1.34 GiB (70%)
Title                       : Тварина / The Animal (2001) AVC [-=DoMiNo=-]
Writing library             : core 152 r2851M ba24899
Encoding settings           : cabac=1 / ref=10 / deblock=1:-3:-3 / analyse=0x3:0x133 / me=umh / subme=10 / psy=1 / psy_rd=1.00:0.03 / mixed_ref=1 / me_range=32 / chroma_me=1 / trellis=2 / 8x8dct=1 / cqm=0 / deadzone=21,11 / fast_pskip=1 / chroma_qp_offset=-3 / threads=6 / lookahead_threads=1 / sliced_threads=0 / nr=0 / decimate=1 / interlaced=0 / bluray_compat=0 / constrained_intra=0 / bframes=9 / b_pyramid=2 / b_adapt=2 / b_bias=0 / direct=3 / weightb=1 / open_gop=0 / weightp=2 / keyint=250 / keyint_min=25 / scenecut=40 / intra_refresh=0 / rc_lookahead=60 / rc=2pass / mbtree=1 / bitrate=2409 / ratetol=1.0 / qcomp=0.60 / qpmin=0 / qpmax=69 / qpstep=4 / cplxblur=20.0 / qblur=0.5 / ip_ratio=1.40 / aq=1:1.00
Language                    : English
Default                     : Yes
Forced                      : No
Color range                 : Limited
Color primaries             : BT.709
Transfer characteristics    : BT.709
Matrix coefficients         : BT.709

Audio #1
ID                          : 2
Format                      : AC-3
Format/Info                 : Audio Coding 3
Commercial name             : Dolby Digital
Codec ID                    : A_AC3
Duration                    : 1 h 19 min
Bit rate mode               : Constant
Bit rate                    : 192 kb/s
Channel(s)                  : 2 channels
Channel layout              : L R
Sampling rate               : 48.0 kHz
Frame rate                  : 31.250 FPS (1536 SPF)
Bit depth                   : 16 bits
Compression mode            : Lossy
Stream size                 : 110 MiB (6%)
Title                       : MVO [AMC] 2.0 [stereo] 192 Kbps [Hurtom-igor911, kryk-v.ya.]
Language                    : Ukrainian
Service kind                : Complete Main
Default                     : Yes
Forced                      : No

Audio #2
ID                          : 3
Format                      : AC-3
Format/Info                 : Audio Coding 3
Commercial name             : Dolby Digital
Codec ID                    : A_AC3
Duration                    : 1 h 19 min
Bit rate mode               : Constant
Bit rate                    : 192 kb/s
Channel(s)                  : 2 channels
Channel layout              : L R
Sampling rate               : 48.0 kHz
Frame rate                  : 31.250 FPS (1536 SPF)
Bit depth                   : 16 bits
Compression mode            : Lossy
Stream size                 : 110 MiB (6%)
Title                       : DVO [Novyj] 2.0 192 Kbps [Hurtom-Sando7, xslim]
Language                    : Ukrainian
Service kind                : Complete Main
Default                     : No
Forced                      : No

Audio #3
ID                          : 4
Format                      : AC-3
Format/Info                 : Audio Coding 3
Commercial name             : Dolby Digital
Codec ID                    : A_AC3
Duration                    : 1 h 19 min
Bit rate mode               : Constant
Bit rate                    : 192 kb/s
Channel(s)                  : 2 channels
Channel layout              : L R
Sampling rate               : 48.0 kHz
Frame rate                  : 31.250 FPS (1536 SPF)
Bit depth                   : 16 bits
Compression mode            : Lossy
Stream size                 : 110 MiB (6%)
Title                       : MVO [TET, K1] 2.0 192 Kbps [Hurtom-Sando7, xslim]
Language                    : Ukrainian
Service kind                : Complete Main
Default                     : No
Forced                      : No

Audio #4
ID                          : 5
Format                      : AC-3
Format/Info                 : Audio Coding 3
Commercial name             : Dolby Digital
Codec ID                    : A_AC3
Duration                    : 1 h 19 min
Bit rate mode               : Constant
Bit rate                    : 448 kb/s
Channel(s)                  : 6 channels
Channel layout              : L R C LFE Ls Rs
Sampling rate               : 48.0 kHz
Frame rate                  : 31.250 FPS (1536 SPF)
Bit depth                   : 16 bits
Compression mode            : Lossy
Stream size                 : 256 MiB (13%)
Title                       : Original, 5.1 448 Kbps [DVD R5]
Language                    : English
Service kind                : Complete Main
Default                     : No
Forced                      : No

Text #1
ID                          : 6
Format                      : UTF-8
Codec ID                    : S_TEXT/UTF8
Codec ID/Info               : UTF-8 Plain Text
Duration                    : 5 s 660 ms
Bit rate                    : 103 b/s
Count of elements           : 2
Stream size                 : 73.0 Bytes (0%)
Title                       : Ukr Forced
Language                    : Ukrainian
Default                     : Yes
Forced                      : Yes

Text #2
ID                          : 7
Format                      : UTF-8
Codec ID                    : S_TEXT/UTF8
Codec ID/Info               : UTF-8 Plain Text
Duration                    : 1 h 12 min
Bit rate                    : 40 b/s
Count of elements           : 722
Stream size                 : 21.3 KiB (0%)
Title                       : Eng full
Language                    : English
Default                     : No
Forced                      : No

Menu
00:00:00.000                : en:Start
00:02:42.480                : en:The Field Trip
00:04:18.160                : en:Obstacle Course
00:07:33.960                : en:Marvin Meets Rianna
00:09:53.840                : en:Badger Milk
00:10:34.960                : en:"Make It Better"
00:12:41.080                : en:The Accident
00:15:21.960                : en:The Running Man
00:17:34.360                : en:Playing Frisbee
00:18:11.280                : en:Balloon Trick
00:20:29.920                : en:The Press Conference
00:23:23.480                : en:Dr. Wilder
00:24:31.520                : en:"You Were Born Here"
00:28:36.840                : en:"Hey Baby"
00:35:04.760                : en:The Animal Shelter
00:35:43.960                : en:Troule With Control
00:39:31.200                : en:Nelly the Goat
00:48:05.720                : en:Mayor's Charity Event
00:49:07.680                : en:Marvin the Hero
00:55:12.960                : en:A Date With Rianna
00:58:18.040                : en:End of a Perfect Evening
01:02:32.040                : en:Killer Cow Suspect
01:12:28.400                : en:Marvin's Hutch
01:13:45.520                : en:Sisk's Posse


Джерело: &
Українські доріжки: Sando7, kryk-v.ya., xslim, igor911; українізований постер: thefir; фільмографії акторів та інформація про озвучення: Віктор (всі - Гуртом).


Срібний реліз (на рейтинг впливає 50% завантаженого)
 Трекер:    Зареєстрований   

Завантажити / скачати фільм українською



відео для новачків



 Зареєстрований:   2019-08-19 22:13
 Розмір:   1.91 GB 
 Оцінка фільму:   9.9/10 (Голосів: 7)
 ЗАЛИШАЙТЕСЬ ЯКОМОГА ДОВШЕ НА РОЗДАЧІ! ЗАВАНТАЖИВ САМ - ДАЙ ЗАВАНТАЖИТИ ІНШИМ!
   
Інші релізи
   Тварина / The Animal (2001) 1080p 3xUkr/Eng | Sub Eng igor911  3 / 0   8.62 GB   2019-08-16 19:58 
   Тварина / The Animal (2001) 2xUkr/Eng Sando7  3 / 0   1.45 GB   2014-06-04 00:37 
   Тварина / The Animal (2001) urij546724  0 / 0   1.34 GB   2010-11-17 01:08 
bot 
робот


З нами з: 30.09.07
Востаннє: 26.05.05
Повідомлень: 22493

2019-08-19 22:13  
Тему перенесено з Анонси релізів до форуму Фільми


igor911

Ваш часовий пояс: GMT + 2 Години

Нова тема   Відповісти