Брайтбьорн / Brightburn (2019) UHD Remux 4K 2160p HDR H.265 Ukr/Eng | Sub Ukr/Eng

Нові коментарі

Нова тема   Відповісти
Автор Повідомлення
Anonymous 







2019-08-15 20:59  
Брайтбьорн / Brightburn (2019) UHD Remux 4K 2160p HDR H.265 Ukr/Eng | Sub Ukr/Eng



Жанр: жахи, фантастика
Країна: США



Кінокомпанія: Sony Pictures Worldwide Acquisitions (SPWA), The H Collective, Troll Court Entertainment
Режисер: Девід Яровескі
Актори: Елізабет Бенкс, Девід Денман, Джексон А. Данн, Абрахам Клінкскейлз, Метт Джонс, Мередіт Гагнер, Беккі Уолстром

Сюжет:
Одного разу вночі дружина, яка давно не може завагітніти, знаходить в лісі немовля, і вони з чоловіком вирішують, що їхні молитви були почуті, й беруть дитину до себе додому. Але у міру того, як він стає старшим, батьки починають помічати за сином щось дивне. Виявляється, він прибув з іншої планети, щоб стати героєм для людства, але в результаті стає чимось зловісним.


Тривалість: 01:30:30
Якість: 4K UltraHD Remux 2160p

Відео:
кодек: H.265 (HEVC)
розмір кадру: 3840x2160
бітрейт: 58,6 Мб/с
бітова глибина: 10 біт
кольоровий простір: BT.2020 (HDR)

Аудіо:
мова: українська
переклад: професійний дубльований
кодек: 5.1
бітрейт: 384 кб/с

Аудіо # 2:
мова: англійська
переклад: оригінал
кодек: 5.1
бітрейт: 640 кб/с

Аудіо # 3:
мова: англійська
переклад: оригінал
кодек: TrueHD + Atmos 7.1
бітрейт: 5583 кб/с

Субтитри # 1:
мова: українська
тип: програмні (м'які) | (full)
формат: *.srt

Субтитри # 2:
мова: англійська
тип: програмні (м'які) | (full)
формат: *.srt
Info
Код:
General
Complete name                            : Brightburn (2019) UHD Remux 4K 2160p HDR H.265 (HEVC) [UKR_ENG] [ViDeO_Hurtom].
Format                                   :
Format version                           : Version 4
File size                                : 39.6 GiB
Duration                                 : 1 h 30 min
Overall bit rate mode                    : Variable
Overall bit rate                         : 62.7 Mb/s
Encoded date                             : UTC 2019-08-15 12:27:17
Writing application                      : v30.1.0 ('Forever And More') 64-bit
Writing library                          : libebml v1.3.6 + v1.4.9

Video
ID                                       : 1
Format                                   : HEVC
Format/Info                              : High Efficiency Video Coding
Commercial name                          : HDR10
Format profile                           : Main [email protected]@High
Codec ID                                 : V_MPEGH/ISO/HEVC
Duration                                 : 1 h 30 min
Bit rate                                 : 58.6 Mb/s
Width                                    : 3 840 pixels
Height                                   : 2 160 pixels
Display aspect ratio                     : 16:9
Frame rate mode                          : Constant
Frame rate                               : 23.976 (24000/1001) FPS
Color space                              : YUV
Chroma subsampling                       : 4:2:0 (Type 2)
Bit depth                                : 10 bits
Bits/(Pixel*Frame)                       : 0.295
Stream size                              : 37.0 GiB (93%)
Language                                 : English
Default                                  : Yes
Forced                                   : No
Color range                              : Limited
Color primaries                          : BT.2020
Transfer characteristics                 : PQ
Matrix coefficients                      : BT.2020 non-constant
Mastering display color primaries        : Display P3
Mastering display luminance              : min: 0.0050 cd/m2, max: 4000 cd/m2
Maximum Content Light Level              : 2145 cd/m2
Maximum Frame-Average Light Level        : 385 cd/m2

Audio #1
ID                                       : 2
Format                                   : AC-3
Format/Info                              : Audio Coding 3
Commercial name                          : Dolby Digital
Codec ID                                 : A_AC3
Duration                                 : 1 h 30 min
Bit rate mode                            : Constant
Bit rate                                 : 384 kb/s
Channel(s)                               : 6 channels
Channel layout                           : L R C LFE Ls Rs
Sampling rate                            : 48.0 kHz
Frame rate                               : 31.250 FPS (1536 SPF)
Bit depth                                : 16 bits
Compression mode                         : Lossy
Stream size                              : 249 MiB (1%)
Title                                    : , 6 ch, 384 Кбт/с
Language                                 : Ukrainian
Service kind                             : Complete Main
Default                                  : Yes
Forced                                   : No

Audio #2
ID                                       : 3
Format                                   : AC-3
Format/Info                              : Audio Coding 3
Commercial name                          : Dolby Digital
Codec ID                                 : A_AC3
Duration                                 : 1 h 30 min
Bit rate mode                            : Constant
Bit rate                                 : 640 kb/s
Channel(s)                               : 6 channels
Channel layout                           : L R C LFE Ls Rs
Sampling rate                            : 48.0 kHz
Frame rate                               : 31.250 FPS (1536 SPF)
Bit depth                                : 16 bits
Compression mode                         : Lossy
Stream size                              : 414 MiB (1%)
Title                                    : , 6 ch, 640 Кбт/с
Language                                 : English
Service kind                             : Complete Main
Default                                  : No
Forced                                   : No

Audio #3
ID                                       : 4
Format                                   : MLP FBA 16-ch
Format/Info                              : Meridian Lossless Packing FBA with 16-channel presentation
Commercial name                          : Dolby TrueHD with Dolby Atmos
Codec ID                                 : A_TRUEHD
Duration                                 : 1 h 30 min
Bit rate mode                            : Variable
Bit rate                                 : 3 032 kb/s
Maximum bit rate                         : 5 583 kb/s
Channel(s)                               : 8 channels
Channel layout                           : L R C LFE Ls Rs Lb Rb
Sampling rate                            : 48.0 kHz
Frame rate                               : 1 200.000 FPS (40 SPF)
Compression mode                         : Lossless
Stream size                              : 1.92 GiB (5%)
Title                                    : TrueHD, 8 ch, 5583 Кбт/с
Language                                 : English
Default                                  : No
Forced                                   : No
Number of dynamic objects                : 11
Bed channel count                        : 1 channel
Bed channel configuration                : LFE

Text #1
ID                                       : 5
Format                                   : UTF-8
Codec ID                                 : S_TEXT/UTF8
Codec ID/Info                            : UTF-8 Plain Text
Duration                                 : 1 h 24 min
Bit rate                                 : 61 b/s
Count of elements                        : 892
Stream size                              : 38.3 KiB (0%)
Title                                    : Full [iTunes Ukrainian]
Language                                 : Ukrainian
Default                                  : No
Forced                                   : No

Text #2
ID                                       : 6
Format                                   : UTF-8
Codec ID                                 : S_TEXT/UTF8
Codec ID/Info                            : UTF-8 Plain Text
Duration                                 : 1 h 27 min
Bit rate                                 : 44 b/s
Count of elements                        : 1036
Stream size                              : 28.2 KiB (0%)
Title                                    : Full
Language                                 : English
Default                                  : No
Forced                                   : No

Menu
00:00:00.000                             : en:Chapter 01
00:03:20.700                             : en:Chapter 02
00:07:04.633                             : en:Chapter 03
00:12:30.792                             : en:Chapter 04
00:17:47.066                             : en:Chapter 05
00:24:23.170                             : en:Chapter 06
00:30:28.910                             : en:Chapter 07
00:38:06.784                             : en:Chapter 08
00:43:11.672                             : en:Chapter 09
00:49:25.796                             : en:Chapter 10
00:56:53.535                             : en:Chapter 11
01:00:12.359                             : en:Chapter 12
01:05:22.127                             : en:Chapter 13
01:08:16.092                             : en:Chapter 14
01:12:20.586                             : en:Chapter 15
01:17:28.894                             : en:Chapter 16
Скріншоти



Джерело: &
Особиста оцінка: 0 - не дивився
Увага! Перед завантаженням переконайтесь, що ваш пристрій відтворення (та/або ПЗ) підтримує H.265 (HEVC)


Золотий реліз (завантажене не впливає на рейтинг)
 Трекер:    Зареєстрований   

Завантажити / скачати фільм українською



відео для новачків



 Зареєстрований:   2019-08-15 20:59
 Розмір:   39.64 GB 
 Оцінка фільму:   8.3/10 (Голосів: 8)
   
Інші релізи
   Брайтбьорн / Brightburn (2019) Remux 1080p Ukr/Eng | Sub Ukr/Eng staf777  3 / 0   19.21 GB   2019-08-21 19:16 
   Брайтбьорн / Brightburn (2019) 720p Ukr/Eng | Sub Ukr/Eng 11FrYkT  22 / 2   3.69 GB   2019-08-19 19:29 
   Брайтбьорн / Brightburn (2019) AVC Ukr/Eng | Sub Ukr/Eng 11FrYkT  19 / 1   1.7 GB   2019-08-17 22:52 
   Брайтбьорн / Brightburn (2019) 1080p Ukr/Eng | Sub Ukr/Eng antik_2008  42 / 1   7.26 GB   2019-08-15 22:28 
   Брайтбьорн / Brightburn (2019) antik_2008  25 / 0   1.45 GB   2019-08-15 20:50 
Ваш часовий пояс: GMT + 2 Години

Нова тема   Відповісти