48 годин / 48 Hrs. (1982) Remux 1080p 2xUkr/Eng | Sub Eng

Нові коментарі

Нова тема   Відповісти
Автор Повідомлення
MakRA 
VIP


З нами з: 11.11.18
Востаннє: 06.06.20
Повідомлень: 1082

2019-08-15 17:49  
48 годин / 48 Hrs. (1982) Remux 1080p 2xUkr/Eng | Sub Eng


Альтернативні обкладинки та постери:


Жанр: екшн, комедія, кримінальний
Країна: США



Кінокомпанія: Paramount Pictures, Lawrence Gordon Productions
Режисер: Волтер Гілл [Walter Hill]
Актори: Нік Нолті [Nick Nolte], Едді Мерфі [Eddie Murphy], Аннет О'Тул [Annette O'Toole], Френк Макрей [Frank McRae], Джеймс Ремар [James Remar], Девід Патрік Келлі [David Patrick Kelly], Сонні Лендем [Sonny Landham], Брайон Джеймс [Brion James], Керрі Шерман [Kerry Sherman], Джонатан Бенкс [Jonathan Banks], Джеймс Кін [James Keane].

Сюжет:
Суворий поліцейський полює за двома злочинцями. Один з них - психопат-вбивця, з вини якого загинув поліцейський, другий - злодій, який вкрав велику суму грошей і сховав її. Вбивця йде слідами злодія, щоб забрати гроші. Для того, щоб першим знайти приреченого шахрая, детектив витягує з-за ґрат його подільника - балакучого і легковажного чорношкірого шахрая, який не особливо горить бажанням допомагати поліції. Але в найближчі 48 годин цим двом протилежностям належить стати напарниками ...


Тривалість: 01:36:37
Якість: Remux 1080p
Відео:
кодек:
розмір кадру: 1920 х 1080
бітрейт: 31,9 Mб/с

Аудіо # 1:
мова: українська
переклад: багатоголосий закадровий
кодек: 2.0
бітрейт: 192 кб/с
Про озвучення:
Ролі озвучили: Андрій Твердак, Лесь Задніпровський та Наталя Ярошенко.
Аудіо # 2:
мова: українська
переклад: багатоголосий закадровий | Так Треба Продакшн
кодек: 2.0
бітрейт: 192 кб/с
Інформація про озвучення:
Ролі озвучили: Нік Нолті - Олег Стальчук, Юрій Гребельник, Еді Мерфі - Анатолій Зіновенко і один чи два жіночих голоси.
Аудіо # 3:
мова: англійська
переклад: оригінал
кодек: TrueHD 5.1
бітрейт: 2117 кб/с

Аудіо # 4:
мова: англійська
переклад: оригінал
кодек: 5.1
бітрейт: 640 кб/с

Аудіо # 5:
мова: англійська
переклад: оригінал
кодек: 2.0
бітрейт: 192 кб/с

Субтитри # 1: (Full)
мова: англійська
тип: пререндерні
формат: *.pgs

Субтитри # 2: (SDH)
мова: англійська
тип: пререндерні
формат: *.pgs
Info
General
Unique ID : 32947357736203910918247325663335502538 (0x18C96E272CBCE2E01C5A2A2BEB4B52CA)
Complete name : H:\+ Фільми в HD\екшн, комедія, кримінальний\48 Hrs. Another 48 Hrs. Collection Remux 1080p\48 Hrs. (1982) Remux 1080p 2xUkrEng Sub Eng [Hurtom].
Format :
Format version : Version 4
File size : 23.9 GiB
Duration : 1 h 36 min
Overall bit rate mode : Variable
Overall bit rate : 35.4 Mb/s
Movie name : 48 годин / 48 Hrs. (1982) Remux 1080p 2xUkr/Eng | Sub Eng [Hurtom]
Encoded date : UTC 2020-03-05 11:36:44
Writing application : v25.0.0 ('Prog Noir') 64-bit
Writing library : libebml v1.3.6 + v1.4.9
Cover : Yes
Attachments : cover.jpg

Video
ID : 1
Format : AVC
Format/Info : Advanced Video Codec
Format profile : [email protected]
Format settings : CABAC / 4 Ref Frames
Format settings, CABAC : Yes
Format settings, Reference fra : 4 frames
Codec ID : V_MPEG4/ISO/AVC
Duration : 1 h 36 min
Bit rate mode : Variable
Bit rate : 31.9 Mb/s
Maximum bit rate : 35.0 Mb/s
Width : 1 920 pixels
Height : 1 080 pixels
Display aspect ratio : 16:9
Frame rate mode : Constant
Frame rate : 23.976 (24000/1001) FPS
Color space : YUV
Chroma subsampling : 4:2:0
Bit depth : 8 bits
Scan type : Progressive
Bits/(Pixel*Frame) : 0.642
Stream size : 21.6 GiB (90%)
Title : 48 Hrs. (1982) Remux 1080p 2xUkr/Eng | Sub Eng [Hurtom]
Language : Ukrainian
Default : Yes
Forced : Yes
Color range : Limited
Color primaries : BT.709
Transfer characteristics : BT.709
Matrix coefficients : BT.709

Audio #1
ID : 2
Format : AC-3
Format/Info : Audio Coding 3
Commercial name : Dolby Digital
Codec ID : A_AC3
Duration : 1 h 36 min
Bit rate mode : Constant
Bit rate : 192 kb/s
Channel(s) : 2 channels
Channel layout : L R
Sampling rate : 48.0 kHz
Frame rate : 31.250 FPS (1536 SPF)
Compression mode : Lossy
Stream size : 133 MiB (1%)
Title : MVO [1+1] 2.0
Language : Ukrainian
Service kind : Complete Main
Default : Yes
Forced : Yes

Audio #2
ID : 3
Format : AC-3
Format/Info : Audio Coding 3
Commercial name : Dolby Digital
Codec ID : A_AC3
Duration : 1 h 36 min
Bit rate mode : Constant
Bit rate : 192 kb/s
Channel(s) : 2 channels
Channel layout : L R
Sampling rate : 48.0 kHz
Frame rate : 31.250 FPS (1536 SPF)
Compression mode : Lossy
Stream size : 133 MiB (1%)
Title : MVO [ІНТЕР] [ICTV] 2.0
Language : Ukrainian
Service kind : Complete Main
Default : No
Forced : No

Audio #3
ID : 4
Format : MLP FBA
Format/Info : Meridian Lossless Packing FBA
Commercial name : Dolby TrueHD
Codec ID : A_TRUEHD
Duration : 1 h 36 min
Bit rate mode : Variable
Bit rate : 2 117 kb/s
Maximum bit rate : 3 561 kb/s
Channel(s) : 6 channels
Channel layout : L R C LFE Ls Rs
Sampling rate : 48.0 kHz
Frame rate : 1 200.000 FPS (40 SPF)
Compression mode : Lossless
Stream size : 1.43 GiB (6%)
Title : Original TrueHD 5.1
Language : English
Default : No
Forced : No

Audio #4
ID : 5
Format : AC-3
Format/Info : Audio Coding 3
Commercial name : Dolby Digital
Codec ID : A_AC3
Duration : 1 h 36 min
Bit rate mode : Constant
Bit rate : 640 kb/s
Channel(s) : 6 channels
Channel layout : L R C LFE Ls Rs
Sampling rate : 48.0 kHz
Frame rate : 31.250 FPS (1536 SPF)
Compression mode : Lossy
Stream size : 442 MiB (2%)
Title : Original 5.1
Language : English
Service kind : Complete Main
Default : No
Forced : No

Audio #5
ID : 6
Format : AC-3
Format/Info : Audio Coding 3
Commercial name : Dolby Digital
Codec ID : A_AC3
Duration : 1 h 36 min
Bit rate mode : Constant
Bit rate : 192 kb/s
Channel(s) : 2 channels
Channel layout : L R
Sampling rate : 48.0 kHz
Frame rate : 31.250 FPS (1536 SPF)
Compression mode : Lossy
Stream size : 133 MiB (1%)
Title : Original 2.0
Language : English
Service kind : Complete Main
Default : No
Forced : No

Text #1
ID : 7
Format : PGS
Muxing mode : zlib
Codec ID : S_HDMV/PGS
Codec ID/Info : Picture based subtitle format used on BDs/HD-DVDs
Duration : 1 h 29 min
Bit rate : 43.3 kb/s
Count of elements : 2402
Stream size : 27.6 MiB (0%)
Title : Eng (Full)
Language : English
Default : No
Forced : No

Text #2
ID : 8
Format : PGS
Muxing mode : zlib
Codec ID : S_HDMV/PGS
Codec ID/Info : Picture based subtitle format used on BDs/HD-DVDs
Duration : 1 h 32 min
Bit rate : 44.9 kb/s
Count of elements : 2620
Stream size : 29.5 MiB (0%)
Title : Eng (SDH)
Language : English
Default : No
Forced : No

Menu
00:00:00.000 : en:Armed and Dangerous
00:05:12.354 : en:Eye Opener
00:10:52.318 : en:Big Artillery
00:20:03.744 : en:Attitude
00:24:12.034 : en:48 Hours
00:30:02.134 : en:Luther
00:36:54.003 : en:Guns and Badges
00:46:18.526 : en:Crook on a Weekend Pass
00:57:29.780 : en:The Underground
01:06:20.351 : en:Vromans
01:11:18.191 : en:The Boys are Back In Town
01:15:50.212 : en:On the Move
01:19:30.516 : en:End of Story
01:29:37.372 : en:Merit System
01:32:30.086 : en:End Credits
Скріншоти
Джерело: &

За запис з ТБ подяка п. xslim,п. Bohdan237, за зведення п. Arsenfpu та п. kryk-v.ya.
Також дякую п. 21jumpstreet за люб'язно надану доріжку від 1+1
Особиста оцінка: 10 - без зайвих вагань рекомендую всім!


Золотий реліз (завантажене не впливає на рейтинг)
 Трекер:    Зареєстрований   

Завантажити / скачати фільм українською



відео для новачків



 Зареєстрований:   2020-03-05 14:59
 Розмір:   23.87 GB 
 Оцінка фільму:   9.1/10 (Голосів: 11)
   
Інші релізи
   48 годин / 48 Hrs. (1982) AVC 2xUkr/Eng | Sub Eng 21jumpstreet  4 / 0   2.86 GB   2020-03-05 14:03 
   48 годин / 48 Hrs. (1982) 720p Ukr/Eng | Sub Eng drop_plz  3 / 0   3.77 GB   2018-07-15 14:13 
   48 годин / 48 Hrs. (1982) Ukr/Eng Arsenfpu  4 / 0   1.74 GB   2017-09-01 14:00 
MakRA 
VIP


З нами з: 11.11.18
Востаннє: 06.06.20
Повідомлень: 1082

2020-03-05 15:01  
Реліз оновлено 05.03.2020
Додано озвучення від 1+1 та іменовані розділи

Ваш часовий пояс: GMT + 2 Години

Нова тема   Відповісти