Будь-якою ціною / Hell or High Water (2016) 1080p H.265 Ukr/Eng | Sub Eng

Нові коментарі

Нова тема   Відповісти
Автор Повідомлення
Anonymous 







2019-08-14 23:21  
Будь-якою ціною / Hell or High Water (2016) 1080p H.265 Ukr/Eng | Sub Eng

Будь-якою ціною / Hell or High Water (2016) 1080p H.265 Ukr/Eng | Sub Eng


Жанр: драма, кримінальний
Країна: США
Кінокомпанія: Sidney Kimmel Entertainment, MadisonWellsMedia, Film 44, LBI Productions
Режисер: Девід Маккензі / David Mackenzie
Актори: Кріс Пайн / Chris Pine, Бен Фостер / Ben Foster, Джефф Бріджес / Jeff Bridges, Дейл Діккі / Dale Dickey, Вїльям Стерчі / William Sterchi, Кеті Міксон / Katy Mixon, Крістін Берг / Kristin K. Berg, Джил Бірмінгем / Gil Birmingham, Ембер Мідфандер / Amber Midthunder, Кевін Ранкін / Kevin Rankin та інші

Сюжет:
Двоє братів-невдах вирішують навідатись в сховища кількох банків, які багато років безбожно обкрадають своїх боржників. Розслідування зухвалих пограбувань з грубим почерком увінчає кар'єру шерифа Маркуса. Але куди виведе це нехитре діло?

Тривалість: 01:42:15
Якість:

Відео:
кодек: H.265 (HEVC)
розмір кадру: 1920 x 796
бітрейт: 5 596 кб/с
бітова глибина: 10 біт

Увага! Перед завантаженням переконайтесь, що ваш пристрій відтворення (та/або ПЗ) підтримує H.265 (HEVC)

Аудіо # 1:
мова: українська
переклад: багатоголосий закадровий
кодек: AC-3 2.0
бітрейт: 192 кб/с

Аудіо # 2:
мова: англійська
переклад: оригінал
кодек: AC-3 5.1
бітрейт: 640 кб/с

Субтитри # 1: (Forced)
мова: українська
тип: програмні (м'які)
формат: *.srt

Субтитри # 2: (Full)
мова: англійська
тип: програмні (м'які)
формат: *.srt


Info
Код:
General
Unique ID                                : 308842052218780975849558276933838723761 (0xE858D0CE235168546D70DDEFF9C45AB1)
Complete name                            : Hell or High Water (2016) 1080p H.265 [UKR_ENG] [Hurtom].
Format                                   :
Format version                           : Version 4
File size                                : 4.59 GiB
Duration                                 : 1 h 42 min
Overall bit rate                         : 6 431 kb/s
Movie name                               : Будь-якою ціною / Hell or High Water (2016)
Encoded date                             : UTC 2019-08-14 20:11:15
Writing application                      : v20.0.0 ('I Am The Sun') 64-bit
Writing library                          : libebml v1.3.5 + v1.4.8
Cover                                    : Yes
Attachments                              : cover.jpg

Video
ID                                       : 1
Format                                   : HEVC
Format/Info                              : High Efficiency Video Coding
Format profile                           : Main [email protected]@Main
Codec ID                                 : V_MPEGH/ISO/HEVC
Duration                                 : 1 h 42 min
Bit rate                                 : 5 596 kb/s
Width                                    : 1 920 pixels
Height                                   : 796 pixels
Display aspect ratio                     : 2.40:1
Frame rate mode                          : Constant
Frame rate                               : 23.976 (24000/1001) FPS
Color space                              : YUV
Chroma subsampling                       : 4:2:0
Bit depth                                : 10 bits
Bits/(Pixel*Frame)                       : 0.153
Stream size                              : 4.00 GiB (87%)
Title                                    : Будь-якою ціною / Hell or High Water (2016)
Writing library                          : x265 2.8+19-bcdc610cf5f0:[Windows][GCC 7.3.0][64 bit] 10bit
Encoding settings                        : cpuid=1111039 / frame-threads=13 / numa-pools=12 / wpp / no-pmode / no-pme / no-psnr / no-ssim / log-level=3 / input-csp=1 / input-res=1920x796 / interlace=0 / total-frames=0 / level-idc=51 / high-tier=1 / uhd-bd=0 / ref=5 / allow-non-conformance / no-repeat-headers / annexb / no-aud / no-hrd / info / hash=0 / no-temporal-layers / open-gop / min-keyint=24 / keyint=240 / gop-lookahead=0 / bframes=9 / b-adapt=2 / b-pyramid / bframe-bias=0 / rc-lookahead=40 / lookahead-slices=5 / scenecut=40 / radl=0 / no-intra-refresh / ctu=64 / min-cu-size=8 / rect / amp / max-tu-size=32 / tu-inter-depth=1 / tu-intra-depth=1 / limit-tu=0 / rdoq-level=0 / dynamic-rd=0.00 / no-ssim-rd / signhide / no-tskip / nr-intra=0 / nr-inter=0 / no-constrained-intra / no-strong-intra-smoothing / max-merge=2 / limit-refs=3 / no-limit-modes / me=3 / subme=7 / merange=57 / temporal-mvp / weightp / no-weightb / no-analyze-src-pics / deblock=-3:-3 / no-sao / no-sao-non-deblock / rd=3 / no-early-skip / rskip / no-fast-intra / no-tskip-fast / no-cu-lossless / no-b-intra / no-splitrd-skip / rdpenalty=0 / psy-rd=2.00 / psy-rdoq=0.00 / no-rd-refine / no-lossless / cbqpoffs=0 / crqpoffs=0 / rc=abr / bitrate=5596 / qcomp=0.70 / qpstep=4 / stats-write=0 / stats-read=1 / cplxblur=20.0 / qblur=0.5 / ipratio=1.40 / pbratio=1.30 / aq-mode=1 / aq-strength=1.00 / cutree / zone-count=0 / no-strict-cbr / qg-size=32 / no-rc-grain / qpmax=69 / qpmin=0 / no-const-vbv / sar=1 / overscan=0 / videoformat=5 / range=0 / colorprim=1 / transfer=1 / colormatrix=1 / chromaloc=0 / display-window=0 / max-cll=0,0 / min-luma=0 / max-luma=1023 / log2-max-poc-lsb=8 / vui-timing-info / vui-hrd-info / slices=1 / no-opt-qp-pps / no-opt-ref-list-length-pps / no-multi-pass-opt-rps / scenecut-bias=0.05 / no-opt-cu-delta-qp / no-aq-motion / no-hdr / no-hdr-opt / no-dhdr10-opt / no-idr-recovery-sei / analysis-reuse-level=5 / scale-factor=0 / refine-intra=0 / refine-inter=0 / refine-mv=0 / no-limit-sao / ctu-info=0 / no-lowpass-dct / refine-mv-type=0 / copy-pic=1 / max-ausize-factor=1.0 / no-dynamic-refine / no-single-sei
Language                                 : English
Default                                  : Yes
Forced                                   : No
Color range                              : Limited
Color primaries                          : BT.709
Transfer characteristics                 : BT.709
Matrix coefficients                      : BT.709

Audio #1
ID                                       : 2
Format                                   : AC-3
Format/Info                              : Audio Coding 3
Commercial name                          : Dolby Digital
Codec ID                                 : A_AC3
Duration                                 : 1 h 42 min
Bit rate mode                            : Constant
Bit rate                                 : 192 kb/s
Channel(s)                               : 2 channels
Channel layout                           : L R
Sampling rate                            : 48.0 kHz
Frame rate                               : 31.250 FPS (1536 SPF)
Bit depth                                : 16 bits
Compression mode                         : Lossy
Stream size                              : 140 MiB (3%)
Title                                    : / 2.0 Ch / 192 kbps / БЗ / Cine+
Language                                 : Ukrainian
Service kind                             : Complete Main
Default                                  : Yes
Forced                                   : Yes

Audio #2
ID                                       : 3
Format                                   : AC-3
Format/Info                              : Audio Coding 3
Commercial name                          : Dolby Digital
Codec ID                                 : A_AC3
Duration                                 : 1 h 42 min
Bit rate mode                            : Constant
Bit rate                                 : 640 kb/s
Channel(s)                               : 6 channels
Channel layout                           : L R C LFE Ls Rs
Sampling rate                            : 48.0 kHz
Frame rate                               : 31.250 FPS (1536 SPF)
Bit depth                                : 16 bits
Compression mode                         : Lossy
Stream size                              : 468 MiB (10%)
Title                                    : / 5.1 Ch / 640 kbps / Original
Language                                 : English
Service kind                             : Complete Main
Default                                  : No
Forced                                   : No

Text #1
ID                                       : 4
Format                                   : UTF-8
Codec ID                                 : S_TEXT/UTF8
Codec ID/Info                            : UTF-8 Plain Text
Duration                                 : 43 min 22 s
Bit rate                                 : 3 b/s
Count of elements                        : 13
Stream size                              : 1 019 Bytes (0%)
Title                                    : Forced
Language                                 : Ukrainian
Default                                  : Yes
Forced                                   : Yes

Text #2
ID                                       : 5
Format                                   : UTF-8
Codec ID                                 : S_TEXT/UTF8
Codec ID/Info                            : UTF-8 Plain Text
Duration                                 : 1 h 34 min
Bit rate                                 : 52 b/s
Count of elements                        : 1167
Stream size                              : 36.7 KiB (0%)
Title                                    : Full
Language                                 : English
Default                                  : No
Forced                                   : No

Menu
00:00:00.000                             : en:Chapter 1
00:09:37.243                             : en:Chapter 2
00:13:50.455                             : en:Chapter 3
00:22:14.583                             : en:Chapter 4
00:28:40.385                             : en:Chapter 5
00:31:54.329                             : en:Chapter 6
00:40:49.614                             : en:Chapter 7
00:46:49.932                             : en:Chapter 8
00:55:45.092                             : en:Chapter 9
01:02:06.473                             : en:Chapter 10
01:09:52.897                             : en:Chapter 11
01:14:04.649                             : en:Chapter 12
01:20:56.226                             : en:Chapter 13
01:29:09.135                             : en:Chapter 14
01:35:03.865                             : en:Chapter 15
01:38:28.277                             : en:Chapter 16
Світлини




Джерело: &
Особиста оцінка: 0 - не дивився


 Трекер:    Зареєстрований   

Завантажити / скачати фільм українською



відео для новачків



 Зареєстрований:   2019-08-14 23:21
 Розмір:   4.59 GB 
 Оцінка фільму:   9.6/10 (Голосів: 5)
   
Інші релізи
radium 
Свій


З нами з: 22.10.12
Востаннє: 24.08.19
Повідомлень: 55

2019-08-16 12:05  
Фільм дуже достойний!
UA_Hunter 
Частий відвідувач


З нами з: 16.12.10
Востаннє: 25.08.19
Повідомлень: 32

2019-08-19 00:03  
Красно дякую за реліз!

Напрочуд якісний фільм. Хочу вказати ім'я сценариста - Тейлор Шерідан (Taylor Sheridan) - завдяки йому герої та їхні діалоги цікаві, а розвиток подій тримає увагу до фінальних титрів.
Рекомендую любителям жанру.

Ваш часовий пояс: GMT + 2 Години

Нова тема   Відповісти