Астерікс. Колекція / Asterix. Collection (1967-2018) 1080p H.265 Ukr/Fre | Sub Ukr/Eng

Нові коментарі

Нова тема   Відповісти
Автор Повідомлення
Anonymous 







2019-08-14 22:59  
Астерікс. Колекція / Asterix. Collection (1967-2018) 1080p H.265 Ukr/Fre | Sub Ukr/Eng

Астерікс. Колекція / Asterix. Collection (1967-2018) 1080p H.265 Ukr/Fre | Sub Ukr/Eng

1. 2. 3. 4. 5. 6. 7.

8. 9. 10.

1. Астерікс із Галії / Astérix le Gaulois (1967) 1080p H.265 Ukr/Fre | Sub Ukr/Eng
Астерікс із Галії / Astérix le Gaulois (1967) 1080p H.265 Ukr/Fre | Sub Ukr/Eng

Астерікс. Колекція / Asterix. Collection (1967-2018) 1080p H.265 Ukr/Fre | Sub Ukr/Eng


Жанр: екшн, анімація, пригодницький
Країна: Франція, Бельгія
Кінокомпанія: Dargaud Films, Belvision
Режисер: Рей Ґуссенс
Ролі озвучують: Роже Карель, Жак Морель, П'єр Торнад, Жак Жуанно, Люсьен Рембур, П'єр Трабо, Бернар Лавалетт, Робер Валье, Мішель Пютерфлам, Моріс Шевіт

Сюжет:
Астерікс з друзями весело живуть і не знають, що центуріон Фонус Кретинус вирішив дізнатися секрет таємничої сили, що допомагає їм перемагати будь-якого ворога. Шпигунові римлян вдалося вивідати цей секрет, але хитрий друїд не дрімає... Історія ніколи не була такою веселою і не приносила стільки задоволення!

Тривалість: 01:07:30
Якість:

Відео:
кодек: H.265 (HEVC)
розмір кадру: 1456 x 1080
бітрейт: 6 971 кб/с
бітова глибина: 10 біт

Увага! Перед завантаженням переконайтесь, що ваш пристрій відтворення (та/або ПЗ) підтримує H.265 (HEVC)

Аудіо # 1:
мова: українська
переклад: багатоголосий закадровий
кодек: AC-3 2.0
бітрейт: 192 кб/с

Аудіо # 2:
мова: французька
переклад: оригінал
кодек: 2.0
бітрейт: 768 кб/с

Субтитри # 1: (Full by Antrakos)
мова: українська
тип: програмні (м'які)
формат: *.srt

Субтитри # 2: (Full)
мова: англійська
тип: програмні (м'які)
формат: *.srt


Info
Код:
General
Unique ID                                : 119036109425169071602765554686558495098 (0x598D85508FE0956B97C7D8D87CFC617A)
Complete name                            : 1. Asterix The Gaul (1967) 1080p H.265 [UKR_FRE] [Hurtom].
Format                                   :
Format version                           : Version 4
File size                                : 3.74 GiB
Duration                                 : 1 h 7 min
Overall bit rate                         : 7 934 kb/s
Movie name                               : Астерікс із Галії / Astérix le Gaulois (1967)
Encoded date                             : UTC 2019-08-13 18:57:51
Writing application                      : v20.0.0 ('I Am The Sun') 64-bit
Writing library                          : libebml v1.3.5 + v1.4.8
Cover                                    : Yes
Attachments                              : Cover.jpg

Video
ID                                       : 1
Format                                   : HEVC
Format/Info                              : High Efficiency Video Coding
Format profile                           : Main [email protected]@High
Codec ID                                 : V_MPEGH/ISO/HEVC
Duration                                 : 1 h 7 min
Bit rate                                 : 6 971 kb/s
Width                                    : 1 456 pixels
Height                                   : 1 080 pixels
Display aspect ratio                     : 4:3
Frame rate mode                          : Constant
Frame rate                               : 23.976 (24000/1001) FPS
Color space                              : YUV
Chroma subsampling                       : 4:2:0
Bit depth                                : 10 bits
Bits/(Pixel*Frame)                       : 0.185
Stream size                              : 3.29 GiB (88%)
Title                                    : Астерікс із Галії / Astérix le Gaulois (1967)
Language                                 : English
Default                                  : Yes
Forced                                   : No
Color range                              : Limited
Color primaries                          : BT.709
Transfer characteristics                 : BT.709
Matrix coefficients                      : BT.709

Audio #1
ID                                       : 2
Format                                   : AC-3
Format/Info                              : Audio Coding 3
Commercial name                          : Dolby Digital
Codec ID                                 : A_AC3
Duration                                 : 1 h 7 min
Bit rate mode                            : Constant
Bit rate                                 : 192 kb/s
Channel(s)                               : 2 channels
Channel layout                           : L R
Sampling rate                            : 48.0 kHz
Frame rate                               : 31.250 FPS (1536 SPF)
Bit depth                                : 16 bits
Compression mode                         : Lossy
Stream size                              : 92.6 MiB (2%)
Title                                    : / 2.0 Ch / 192 kbps / БЗ / TET
Language                                 : Ukrainian
Service kind                             : Complete Main
Default                                  : Yes
Forced                                   : Yes

Audio #2
ID                                       : 3
Format                                   :
Format/Info                              : Digital Theater Systems
Codec ID                                 : A_DTS
Duration                                 : 1 h 7 min
Bit rate mode                            : Constant
Bit rate                                 : 768 kb/s
Channel(s)                               : 2 channels
Channel layout                           : L R
Sampling rate                            : 48.0 kHz
Frame rate                               : 93.750 FPS (512 SPF)
Bit depth                                : 16 bits
Compression mode                         : Lossy
Stream size                              : 371 MiB (10%)
Title                                    : / 5.1 Ch / 768 kbps / Original
Language                                 : French
Default                                  : No
Forced                                   : No

Text #1
ID                                       : 4
Format                                   : UTF-8
Codec ID                                 : S_TEXT/UTF8
Codec ID/Info                            : UTF-8 Plain Text
Duration                                 : 1 h 6 min
Bit rate                                 : 83 b/s
Count of elements                        : 586
Stream size                              : 40.6 KiB (0%)
Title                                    : Full by Antrakos
Language                                 : Ukrainian
Default                                  : Yes
Forced                                   : No

Text #2
ID                                       : 5
Format                                   : UTF-8
Codec ID                                 : S_TEXT/UTF8
Codec ID/Info                            : UTF-8 Plain Text
Duration                                 : 1 h 4 min
Bit rate                                 : 56 b/s
Count of elements                        : 610
Stream size                              : 26.6 KiB (0%)
Title                                    : Full
Language                                 : English
Default                                  : No
Forced                                   : No
Світлини



2. Астерікс і Клеопатра / Astérix et Cléopâtre (1968) 1080p H.265 Ukr/Fre | Sub Eng
Астерікс і Клеопатра / Astérix et Cléopâtre (1968) 1080p H.265 Ukr/Fre | Sub Eng

Астерікс. Колекція / Asterix. Collection (1967-2018) 1080p H.265 Ukr/Fre | Sub Ukr/Eng


Жанр: анімація, пригодницький, комедія
Країна: Франція, Бельгія
Кінокомпанія: Dargaud Films, Belvision
Режисер: Рене Ґосінні, Лі Пайан, Альбер Удерзо
Ролі озвучують: Роже Карель, Жак Морель, Мішлін Декс, Жак Балютен, Рене Ґосінні, Анрі Лабюсьер, Бернар Лавалетт, Серж Савьён, Пьер Трабо

Сюжет:
Єгипетська цариця Клеопатра була не тільки дуже красива, але й настільки ж норовлива. Її страшно обурили слова Цезаря, що єгиптяни назавжди залишаться рабами, оскільки вони - народ ледачий і дурний. Цариця вирішила втерти ніс знахабнілому імператору. А допоможуть їй у цьому друїд Гетафікс з друзями Астеріксом і Обеліксом. Одного разу вони вже перемогли римські легіони. Що чекає їх у Єгипті?

Тривалість: 01:12:20
Якість:

Відео:
кодек: H.265 (HEVC)
розмір кадру: 1496 x 1080
бітрейт: 6 984 кб/с
бітова глибина: 10 біт

Увага! Перед завантаженням переконайтесь, що ваш пристрій відтворення (та/або ПЗ) підтримує H.265 (HEVC)

Аудіо # 1:
мова: українська
переклад: багатоголосий закадровий
кодек: AC-3 2.0
бітрейт: 192 кб/с

Аудіо # 2:
мова: французька
переклад: оригінал
кодек: 2.0
бітрейт: 768 кб/с

Субтитри # 1: (Full)
мова: англійська
тип: програмні (м'які)
формат: *.srt


Info
Код:
General
Unique ID                                : 140931032143255377223621299424960616512 (0x6A06545971B46A6690FBED8BA4AA9840)
Complete name                            : 2. Asterix et Cleopatre (1968) 1080p H.265 [UKR_FRE] [Hurtom].
Format                                   :
Format version                           : Version 4
File size                                : 4.02 GiB
Duration                                 : 1 h 12 min
Overall bit rate                         : 7 946 kb/s
Movie name                               : Астерікс і Клеопатра / Astérix et Cléopâtre (1968)
Encoded date                             : UTC 2019-08-14 19:13:48
Writing application                      : v20.0.0 ('I Am The Sun') 64-bit
Writing library                          : libebml v1.3.5 + v1.4.8
Cover                                    : Yes
Attachments                              : Cover.jpg

Video
ID                                       : 1
Format                                   : HEVC
Format/Info                              : High Efficiency Video Coding
Format profile                           : Main [email protected]@High
Codec ID                                 : V_MPEGH/ISO/HEVC
Duration                                 : 1 h 12 min
Bit rate                                 : 6 984 kb/s
Width                                    : 1 496 pixels
Height                                   : 1 080 pixels
Display aspect ratio                     : 1.385
Frame rate mode                          : Constant
Frame rate                               : 23.976 (24000/1001) FPS
Color space                              : YUV
Chroma subsampling                       : 4:2:0
Bit depth                                : 10 bits
Bits/(Pixel*Frame)                       : 0.180
Stream size                              : 3.53 GiB (88%)
Title                                    : Астерікс і Клеопатра / Astérix et Cléopâtre (1968)
Language                                 : English
Default                                  : Yes
Forced                                   : No
Color range                              : Limited
Color primaries                          : BT.709
Transfer characteristics                 : BT.709
Matrix coefficients                      : BT.709

Audio #1
ID                                       : 2
Format                                   : AC-3
Format/Info                              : Audio Coding 3
Commercial name                          : Dolby Digital
Codec ID                                 : A_AC3
Duration                                 : 1 h 12 min
Bit rate mode                            : Constant
Bit rate                                 : 192 kb/s
Channel(s)                               : 2 channels
Channel layout                           : L R
Sampling rate                            : 48.0 kHz
Frame rate                               : 31.250 FPS (1536 SPF)
Bit depth                                : 16 bits
Compression mode                         : Lossy
Stream size                              : 99.2 MiB (2%)
Title                                    : / 2.0 Ch / 192 kbps / БЗ / TET
Language                                 : Ukrainian
Service kind                             : Complete Main
Default                                  : Yes
Forced                                   : Yes

Audio #2
ID                                       : 3
Format                                   :
Format/Info                              : Digital Theater Systems
Codec ID                                 : A_DTS
Duration                                 : 1 h 12 min
Bit rate mode                            : Constant
Bit rate                                 : 768 kb/s
Channel(s)                               : 2 channels
Channel layout                           : L R
Sampling rate                            : 48.0 kHz
Frame rate                               : 93.750 FPS (512 SPF)
Bit depth                                : 16 bits
Compression mode                         : Lossy
Stream size                              : 397 MiB (10%)
Title                                    : / 5.1 Ch / 768 kbps / Original
Language                                 : French
Default                                  : No
Forced                                   : No

Text
ID                                       : 4
Format                                   : UTF-8
Codec ID                                 : S_TEXT/UTF8
Codec ID/Info                            : UTF-8 Plain Text
Duration                                 : 1 h 11 min
Bit rate                                 : 40 b/s
Count of elements                        : 420
Stream size                              : 21.4 KiB (0%)
Title                                    : Full
Language                                 : English
Default                                  : No
Forced                                   : No
Світлини



3. 12 подвигів Астерікса / Les douze travaux d'Astérix (1976) 1080p H.265 Ukr/Fre | Sub Eng
12 подвигів Астерікса / Les douze travaux d'Astérix (1976) 1080p H.265 Ukr/Fre | Sub Eng

Астерікс. Колекція / Asterix. Collection (1967-2018) 1080p H.265 Ukr/Fre | Sub Ukr/Eng


Жанр: екшн, пригодницький, анімація
Країна: Франція
Кінокомпанія: Dargaud Films, Les Productions René Goscinny, Studios Idefix
Режисер: Рене Ґосінні, Генрі Ґрюель, Альбер Удерзо
Ролі озвучують: Роже Карель, Пьер Торнад, Жак Морель, Анрі Лабюсьер, Жерар Ернандес, Анрі Вірложе

Сюжет:
50 рік до нашої ери. Великому Юлію Цезарю гірше гіркої редьки набридло маленьке галльське село, його веселі і непокірні мешканці та їх чарівне зілля. Як знати, може вони і справді боги? Але Цезар не був би Цезарем, якби примирився з подібною непокорою. Він вирішує дати Астеріксу і його друзям дванадцять завдань, виконати які не під силу жодному смертному. Сказано-зроблено. Звичайно, часи Геркулеса давно пройшли. Але при чому Геркулес, якщо є Астерікс і Обелікс? Саме їм вождь села Тонабрікс і доручає прийняти найясніший виклик. Друзям ж тільки те і треба - адже пригоди тривають, а значить веселе життя забезпечене!

Тривалість: 01:19:04
Якість:

Відео:
кодек: H.265 (HEVC)
розмір кадру: 1760 x 1080
бітрейт: 7 093 кб/с
бітова глибина: 10 біт

Увага! Перед завантаженням переконайтесь, що ваш пристрій відтворення (та/або ПЗ) підтримує H.265 (HEVC)

Аудіо # 1:
мова: українська
переклад: багатоголосий закадровий
кодек: AC-3 2.0
бітрейт: 192 кб/с

Аудіо # 2:
мова: французька
переклад: оригінал
кодек: 2.0
бітрейт: 768 кб/с

Субтитри # 1: (Full)
мова: англійська
тип: програмні (м'які)
формат: *.srt


Info
Код:
General
Unique ID                                : 328301022970949736713545079075245966303 (0xF6FC7A22A74FD015762CD2D5950CC3DF)
Complete name                            : 3. Les douze travaux d'Asterix (1976) 1080p H.265 [UKR_FRE] [Hurtom].
Format                                   :
Format version                           : Version 4
File size                                : 4.45 GiB
Duration                                 : 1 h 21 min
Overall bit rate                         : 7 819 kb/s
Movie name                               : 12 подвигів Астерікса / Les douze travaux d'Astérix (1976)
Encoded date                             : UTC 2019-08-13 19:58:42
Writing application                      : v20.0.0 ('I Am The Sun') 64-bit
Writing library                          : libebml v1.3.5 + v1.4.8
Cover                                    : Yes
Attachments                              : Cover.jpg

Video
ID                                       : 1
Format                                   : HEVC
Format/Info                              : High Efficiency Video Coding
Format profile                           : Main [email protected]@High
Codec ID                                 : V_MPEGH/ISO/HEVC
Duration                                 : 1 h 19 min
Bit rate                                 : 7 093 kb/s
Width                                    : 1 760 pixels
Height                                   : 1 080 pixels
Display aspect ratio                     : 16:10
Frame rate mode                          : Constant
Frame rate                               : 23.976 (24000/1001) FPS
Color space                              : YUV
Chroma subsampling                       : 4:2:0
Bit depth                                : 10 bits
Bits/(Pixel*Frame)                       : 0.156
Stream size                              : 3.92 GiB (88%)
Title                                    : 12 подвигів Астерікса / Les douze travaux d'Astérix (1976)
Language                                 : English
Default                                  : Yes
Forced                                   : No
Color range                              : Limited
Color primaries                          : BT.709
Transfer characteristics                 : BT.709
Matrix coefficients                      : BT.709

Audio #1
ID                                       : 2
Format                                   : AC-3
Format/Info                              : Audio Coding 3
Commercial name                          : Dolby Digital
Codec ID                                 : A_AC3
Duration                                 : 1 h 21 min
Bit rate mode                            : Constant
Bit rate                                 : 192 kb/s
Channel(s)                               : 2 channels
Channel layout                           : L R
Sampling rate                            : 48.0 kHz
Frame rate                               : 31.250 FPS (1536 SPF)
Bit depth                                : 16 bits
Compression mode                         : Lossy
Stream size                              : 112 MiB (2%)
Title                                    : / 2.0 Ch / 192 kbps / БЗ / TET
Language                                 : Ukrainian
Service kind                             : Complete Main
Default                                  : Yes
Forced                                   : Yes

Audio #2
ID                                       : 3
Format                                   :
Format/Info                              : Digital Theater Systems
Codec ID                                 : A_DTS
Duration                                 : 1 h 19 min
Bit rate mode                            : Constant
Bit rate                                 : 768 kb/s
Channel(s)                               : 2 channels
Channel layout                           : L R
Sampling rate                            : 48.0 kHz
Frame rate                               : 93.750 FPS (512 SPF)
Bit depth                                : 16 bits
Compression mode                         : Lossy
Stream size                              : 434 MiB (10%)
Title                                    : / 5.1 Ch / 768 kbps / Original
Language                                 : French
Default                                  : No
Forced                                   : No

Text
ID                                       : 4
Format                                   : UTF-8
Codec ID                                 : S_TEXT/UTF8
Codec ID/Info                            : UTF-8 Plain Text
Duration                                 : 1 h 18 min
Bit rate                                 : 60 b/s
Count of elements                        : 751
Stream size                              : 35.1 KiB (0%)
Title                                    : Full
Language                                 : English
Default                                  : Yes
Forced                                   : No
Світлини



4. Астерікс проти Цезаря / Asterix et la surprise de Cesar (1985) 1080p H.265 2xUkr/Fre | Sub Eng
Астерікс проти Цезаря / Asterix et la surprise de Cesar (1985) 1080p H.265 2xUkr/Fre | Sub Eng

Астерікс. Колекція / Asterix. Collection (1967-2018) 1080p H.265 Ukr/Fre | Sub Ukr/Eng


Жанр: анімація, сімейний, пригодницький
Країна: Франція
Кінокомпанія: Gaumont International, Dargaud Films, Les Productions Rene Goscinny
Режисер: Ґаетан Бріцці, Пол Бріцці
Ролі озвучують: Роже Карель, П'єр Торнадо, П'єр Монді, Анрі Лабюс'єр, Роджер Люмонт, Хосе Люссьоні, Мішель Барбе, Ів Барсак

Сюжет:
Одного разу Обелікс закохався в прекрасну Фальбалу. Здавалося б, справа до весілля. Але горда Фальбала не розділила порив велетня, поклавши око на красеня Трагікомікса. Обелікс горював-горював, та й втішився. До тих пір, поки злісні римляни не вихопить зрадницьким образом двох закоханих і не відвезли їх на край світу - в Африку. Природно, друзі не могли сидіти склавши руки. Недовго думаючи, Астерікс і Обелікс відправляються в новий похід, як завжди, повний смертельних небезпек і веселих пригод. А римська арена з нагоди дня народження Цезаря вже заповнена народом і всі чекають жертвопринесення...

Тривалість: 01:16:30
Якість:

Відео:
кодек: H.265 (HEVC)
розмір кадру: 1800 x 1080
бітрейт: 6 877 кб/с
бітова глибина: 10 біт

Увага! Перед завантаженням переконайтесь, що ваш пристрій відтворення (та/або ПЗ) підтримує H.265 (HEVC)

Аудіо # 1:
мова: українська
переклад: багатоголосий закадровий
кодек: AC-3 2.0
бітрейт: 192 кб/с

Аудіо # 2:
мова: українська
переклад: двоголосий закадровий
кодек: AC-3 2.0
бітрейт: 192 кб/с

Аудіо # 3:
мова: французька
переклад: оригінал
кодек: 2.0
бітрейт: 768 кб/с

Субтитри # 1: (Full)
мова: англійська
тип: програмні (м'які)
формат: *.srt


Info
Код:
General
Unique ID                                : 82260871874854313117340720880753506384 (0x3DE2DE1D9F9C1DE94C27C4CD9132F850)
Complete name                            : 4. Asterix et la surprise de Cesar (1985) 1080p H.265 [2xUKR_FRE] [Hurtom].
Format                                   :
Format version                           : Version 4
File size                                : 4.29 GiB
Duration                                 : 1 h 16 min
Overall bit rate                         : 8 032 kb/s
Movie name                               : Астерікс проти Цезаря / Asterix et la surprise de Cesar (1985)
Encoded date                             : UTC 2019-08-13 20:03:04
Writing application                      : v20.0.0 ('I Am The Sun') 64-bit
Writing library                          : libebml v1.3.5 + v1.4.8
Cover                                    : Yes
Attachments                              : Cover.jpg

Video
ID                                       : 1
Format                                   : HEVC
Format/Info                              : High Efficiency Video Coding
Format profile                           : Main [email protected]@High
Codec ID                                 : V_MPEGH/ISO/HEVC
Duration                                 : 1 h 16 min
Bit rate                                 : 6 877 kb/s
Width                                    : 1 800 pixels
Height                                   : 1 080 pixels
Display aspect ratio                     : 5:3
Frame rate mode                          : Constant
Frame rate                               : 23.976 (24000/1001) FPS
Color space                              : YUV
Chroma subsampling                       : 4:2:0
Bit depth                                : 10 bits
Bits/(Pixel*Frame)                       : 0.148
Stream size                              : 3.68 GiB (86%)
Title                                    : Астерікс проти Цезаря / Asterix et la surprise de Cesar (1985)
Language                                 : English
Default                                  : Yes
Forced                                   : No
Color range                              : Limited
Color primaries                          : BT.709
Transfer characteristics                 : BT.709
Matrix coefficients                      : BT.709

Audio #1
ID                                       : 2
Format                                   : AC-3
Format/Info                              : Audio Coding 3
Commercial name                          : Dolby Digital
Codec ID                                 : A_AC3
Duration                                 : 1 h 16 min
Bit rate mode                            : Constant
Bit rate                                 : 192 kb/s
Channel(s)                               : 2 channels
Channel layout                           : L R
Sampling rate                            : 48.0 kHz
Frame rate                               : 31.250 FPS (1536 SPF)
Bit depth                                : 16 bits
Compression mode                         : Lossy
Stream size                              : 105 MiB (2%)
Title                                    : / 2.0 Ch / 192 kbps / БЗ / Cine+
Language                                 : Ukrainian
Service kind                             : Complete Main
Default                                  : Yes
Forced                                   : Yes

Audio #2
ID                                       : 3
Format                                   : AC-3
Format/Info                              : Audio Coding 3
Commercial name                          : Dolby Digital
Codec ID                                 : A_AC3
Duration                                 : 1 h 16 min
Bit rate mode                            : Constant
Bit rate                                 : 192 kb/s
Channel(s)                               : 2 channels
Channel layout                           : L R
Sampling rate                            : 48.0 kHz
Frame rate                               : 31.250 FPS (1536 SPF)
Bit depth                                : 16 bits
Compression mode                         : Lossy
Stream size                              : 105 MiB (2%)
Title                                    : / 2.0 Ch / 192 kbps / ДЗ / ICTV
Language                                 : Ukrainian
Service kind                             : Complete Main
Default                                  : No
Forced                                   : No

Audio #3
ID                                       : 4
Format                                   :
Format/Info                              : Digital Theater Systems
Codec ID                                 : A_DTS
Duration                                 : 1 h 16 min
Bit rate mode                            : Constant
Bit rate                                 : 768 kb/s
Channel(s)                               : 2 channels
Channel layout                           : L R
Sampling rate                            : 48.0 kHz
Frame rate                               : 93.750 FPS (512 SPF)
Bit depth                                : 16 bits
Compression mode                         : Lossy
Stream size                              : 420 MiB (10%)
Title                                    : / 5.1 Ch / 768 kbps / Original
Language                                 : French
Default                                  : No
Forced                                   : No

Text
ID                                       : 5
Format                                   : UTF-8
Codec ID                                 : S_TEXT/UTF8
Codec ID/Info                            : UTF-8 Plain Text
Duration                                 : 1 h 11 min
Bit rate                                 : 59 b/s
Count of elements                        : 786
Stream size                              : 31.4 KiB (0%)
Title                                    : Full
Language                                 : English
Default                                  : Yes
Forced                                   : No
Світлини



5. Астерікс в Британії / Asterix chez les Bretons (1986) 1080p H.265 Ukr/Fre | Sub Eng
Астерікс в Британії / Asterix chez les Bretons (1986) 1080p H.265 Ukr/Fre | Sub Eng

Астерікс. Колекція / Asterix. Collection (1967-2018) 1080p H.265 Ukr/Fre | Sub Ukr/Eng


Жанр: анімація, пригодницький, комедія
Країна: Франція
Кінокомпанія: Gaumont International, Dargaud Films, Gutenberghus
Режисер: Піно Ван Ламсвеерде
Ролі озвучують: Роже Карель, П'єр Торнадо, Ґрегем Бушнел, П'єр Монді, Моріс Ріш, Ніколя Сільберг, Альбер Ож'є, Пол Бісціліа, Берті Кортес

Сюжет:
Юлій Цезар не на жарт розлютився на британців, які не тільки не здавалися римським військам, але і неодноразово допомагали в битвах волелюбним галам. Вихід один - війна. Тим більше що британці воюють лише п'ять днів на тиждень, та й то з перервою для чаювання. Хитрий Цезар знову забув, що десь поблизу, - усього лише через протоку, - проживає доблесний Астерікс з друзями. Тільки їм відомий секрет таємничого зілля... А те, що підходить для галів, підійде і для британців!

Тривалість: 01:18:38
Якість:

Відео:
кодек: H.265 (HEVC)
розмір кадру: 1800 x 1080
бітрейт: 6 893 кб/с
бітова глибина: 10 біт

Увага! Перед завантаженням переконайтесь, що ваш пристрій відтворення (та/або ПЗ) підтримує H.265 (HEVC)

Аудіо # 1:
мова: українська
переклад: багатоголосий закадровий
кодек: AC-3 2.0
бітрейт: 192 кб/с

Аудіо # 2:
мова: французька
переклад: оригінал
кодек: 2.0
бітрейт: 768 кб/с

Субтитри # 1: (Full)
мова: англійська
тип: програмні (м'які)
формат: *.srt


Info
Код:
General
Unique ID                                : 75562701608504049706892164837140673880 (0x38D8D8D311BC0787F9D8AE15BD453558)
Complete name                            : 5. Asterix chez les Bretons (1986) 1080p H.265 [UKR_FRE] [Hurtom].
Format                                   :
Format version                           : Version 4
File size                                : 4.32 GiB
Duration                                 : 1 h 18 min
Overall bit rate                         : 7 856 kb/s
Movie name                               : Астерікс в Британії / Asterix chez les Bretons (1986)
Encoded date                             : UTC 2019-08-13 19:24:16
Writing application                      : v20.0.0 ('I Am The Sun') 64-bit
Writing library                          : libebml v1.3.5 + v1.4.8
Cover                                    : Yes
Attachments                              : Cover.jpg

Video
ID                                       : 1
Format                                   : HEVC
Format/Info                              : High Efficiency Video Coding
Format profile                           : Main [email protected]@High
Codec ID                                 : V_MPEGH/ISO/HEVC
Duration                                 : 1 h 18 min
Bit rate                                 : 6 893 kb/s
Width                                    : 1 800 pixels
Height                                   : 1 080 pixels
Display aspect ratio                     : 5:3
Frame rate mode                          : Constant
Frame rate                               : 23.976 (24000/1001) FPS
Color space                              : YUV
Chroma subsampling                       : 4:2:0
Bit depth                                : 10 bits
Bits/(Pixel*Frame)                       : 0.148
Stream size                              : 3.79 GiB (88%)
Title                                    : Астерікс в Британії / Asterix chez les Bretons (1986)
Language                                 : English
Default                                  : Yes
Forced                                   : No
Color range                              : Limited
Color primaries                          : BT.709
Transfer characteristics                 : BT.709
Matrix coefficients                      : BT.709

Audio #1
ID                                       : 2
Format                                   : AC-3
Format/Info                              : Audio Coding 3
Commercial name                          : Dolby Digital
Codec ID                                 : A_AC3
Duration                                 : 1 h 18 min
Bit rate mode                            : Constant
Bit rate                                 : 192 kb/s
Channel(s)                               : 2 channels
Channel layout                           : L R
Sampling rate                            : 48.0 kHz
Frame rate                               : 31.250 FPS (1536 SPF)
Bit depth                                : 16 bits
Compression mode                         : Lossy
Stream size                              : 108 MiB (2%)
Title                                    : / 2.0 Ch / 192 kbps / БЗ / Novy Kanal
Language                                 : Ukrainian
Service kind                             : Complete Main
Default                                  : Yes
Forced                                   : Yes

Audio #2
ID                                       : 3
Format                                   :
Format/Info                              : Digital Theater Systems
Codec ID                                 : A_DTS
Duration                                 : 1 h 18 min
Bit rate mode                            : Constant
Bit rate                                 : 768 kb/s
Channel(s)                               : 2 channels
Channel layout                           : L R
Sampling rate                            : 48.0 kHz
Frame rate                               : 93.750 FPS (512 SPF)
Bit depth                                : 16 bits
Compression mode                         : Lossy
Stream size                              : 432 MiB (10%)
Title                                    : / 5.1 Ch / 768 kbps / Original
Language                                 : French
Default                                  : No
Forced                                   : No

Text
ID                                       : 4
Format                                   : UTF-8
Codec ID                                 : S_TEXT/UTF8
Codec ID/Info                            : UTF-8 Plain Text
Duration                                 : 1 h 12 min
Bit rate                                 : 54 b/s
Count of elements                        : 595
Stream size                              : 28.9 KiB (0%)
Title                                    : Full
Language                                 : English
Default                                  : Yes
Forced                                   : No
Світлини



6. Великий бій Астерикса / Астерікс та Обелікс. Великий бій / Asterix et le coup du menhir (1989) 1080p H.265 2xUkr/Fre | Sub Ukr/Fre/Eng
Великий бій Астерикса / Астерікс та Обелікс. Великий бій / Asterix et le coup du menhir (1989) 1080p H.265 2xUkr/Fre | Sub Ukr/Fre/Eng

Астерікс. Колекція / Asterix. Collection (1967-2018) 1080p H.265 Ukr/Fre | Sub Ukr/Eng


Жанр: анімація, пригодницький, комедія
Країна: Франція, ФРН
Кінокомпанія: Dargaud Films, Extrafilm, Gaumont International
Режисер: Філіп Ґрімон
Ролі озвучують: Роже Карель, П'єр Торнадо, Анрі Лабюс'єр, Жюльєн Ґіомар, Анрі Пуар'є, Марі-Анн Шазель, Роджер Люмонт, Патрік Прежан, Едґар Ґіврі, Жан-Жак Крам'єр

Сюжет:
Як відомо, справжньому галові все байдуже. Він і у вогні не горить, і у воді не тоне. Але на цей раз навіть Астеріксу доводиться несолодко: адже на його село обрушується ураган небаченої сили. Допомогти нашому герою може тільки друїд Панорамікс, на якого, як на зло, тільки що звалився величезний валун. Бідолаха нікого не впізнає ... Про все це стає відомо Юлію Цезарю - а вже він спить і бачить, кого б ще завоювати. Попереду великий бій - і наші веселі герої виходять на нього з відкритим забралом.

Тривалість: 01:19:53
Якість:

Відео:
кодек: H.265 (HEVC)
розмір кадру: 1920 x 1040
бітрейт: 6 850 кб/с
бітова глибина: 10 біт

Увага! Перед завантаженням переконайтесь, що ваш пристрій відтворення (та/або ПЗ) підтримує H.265 (HEVC)

Аудіо # 1:
мова: українська
переклад: багатоголосий закадровий
кодек: AC-3 2.0
бітрейт: 192 кб/с

Аудіо # 2:
мова: українська
переклад: багатоголосий закадровий
кодек: AC-3 2.0
бітрейт: 192 кб/с

Аудіо # 3:
мова: французька
переклад: оригінал
кодек: 2.0
бітрейт: 1510 кб/с

Субтитри # 1: (Full by Antrakos)
мова: українська
тип: програмні (м'які)
формат: *.srt

Субтитри # 2: (Full)
мова: французька
тип: програмні (м'які)
формат: *.srt

Субтитри # 3: (Full)
мова: англійська
тип: програмні (м'які)
формат: *.srt


Info
Код:
General
Unique ID                                : 83134575303144421467549719176029562990 (0x3E8B230542C6CF17B0B0B721F602686E)
Complete name                            : 6. Asterix and the Big Fight (1989) 1080p H.265 [2xUKR_FRE] [Hurtom].
Format                                   :
Format version                           : Version 4
File size                                : 4.88 GiB
Duration                                 : 1 h 19 min
Overall bit rate                         : 8 746 kb/s
Movie name                               : Великий бій Астерикса / Астерікс та Обелікс. Великий бій / Asterix et le coup du menhir (1989)
Encoded date                             : UTC 2019-08-13 18:51:55
Writing application                      : v20.0.0 ('I Am The Sun') 64-bit
Writing library                          : libebml v1.3.5 + v1.4.8
Cover                                    : Yes
Attachments                              : Cover.jpg

Video
ID                                       : 1
Format                                   : HEVC
Format/Info                              : High Efficiency Video Coding
Format profile                           : Main [email protected]@High
Codec ID                                 : V_MPEGH/ISO/HEVC
Duration                                 : 1 h 19 min
Bit rate                                 : 6 850 kb/s
Width                                    : 1 920 pixels
Height                                   : 1 040 pixels
Display aspect ratio                     : 1.85:1
Frame rate mode                          : Constant
Frame rate                               : 24.000 FPS
Color space                              : YUV
Chroma subsampling                       : 4:2:0
Bit depth                                : 10 bits
Bits/(Pixel*Frame)                       : 0.143
Stream size                              : 3.82 GiB (78%)
Title                                    : Великий бій Астерикса / Астерікс та Обелікс. Великий бій / Asterix et le coup du menhir (1989)
Language                                 : English
Default                                  : Yes
Forced                                   : No
Color range                              : Limited
Color primaries                          : BT.709
Transfer characteristics                 : BT.709
Matrix coefficients                      : BT.709

Audio #1
ID                                       : 2
Format                                   : AC-3
Format/Info                              : Audio Coding 3
Commercial name                          : Dolby Digital
Codec ID                                 : A_AC3
Duration                                 : 1 h 19 min
Bit rate mode                            : Constant
Bit rate                                 : 192 kb/s
Channel(s)                               : 2 channels
Channel layout                           : L R
Sampling rate                            : 48.0 kHz
Frame rate                               : 31.250 FPS (1536 SPF)
Bit depth                                : 16 bits
Compression mode                         : Lossy
Delay relative to video                  : 12 ms
Stream size                              : 110 MiB (2%)
Title                                    : / 2.0 Ch / 192 kbps / БЗ / K1
Language                                 : Ukrainian
Service kind                             : Complete Main
Default                                  : Yes
Forced                                   : Yes

Audio #2
ID                                       : 3
Format                                   : AC-3
Format/Info                              : Audio Coding 3
Commercial name                          : Dolby Digital
Codec ID                                 : A_AC3
Duration                                 : 1 h 19 min
Bit rate mode                            : Constant
Bit rate                                 : 192 kb/s
Channel(s)                               : 2 channels
Channel layout                           : L R
Sampling rate                            : 48.0 kHz
Frame rate                               : 31.250 FPS (1536 SPF)
Bit depth                                : 16 bits
Compression mode                         : Lossy
Delay relative to video                  : 12 ms
Stream size                              : 110 MiB (2%)
Title                                    : / 2.0 Ch / 192 kbps / БЗ / Novy Kanal
Language                                 : Ukrainian
Service kind                             : Complete Main
Default                                  : No
Forced                                   : No

Audio #3
ID                                       : 4
Format                                   :
Format/Info                              : Digital Theater Systems
Codec ID                                 : A_DTS
Duration                                 : 1 h 19 min
Bit rate mode                            : Constant
Bit rate                                 : 1 509 kb/s
Channel(s)                               : 2 channels
Channel layout                           : L R
Sampling rate                            : 48.0 kHz
Frame rate                               : 93.750 FPS (512 SPF)
Bit depth                                : 24 bits
Compression mode                         : Lossy
Stream size                              : 862 MiB (17%)
Title                                    : / 5.1 Ch / 1509 kbps / Original
Language                                 : French
Default                                  : No
Forced                                   : No

Text #1
ID                                       : 5
Format                                   : UTF-8
Codec ID                                 : S_TEXT/UTF8
Codec ID/Info                            : UTF-8 Plain Text
Duration                                 : 1 h 14 min
Bit rate                                 : 66 b/s
Count of elements                        : 537
Stream size                              : 36.5 KiB (0%)
Title                                    : Full by Antrakos
Language                                 : Ukrainian
Default                                  : Yes
Forced                                   : No

Text #2
ID                                       : 6
Format                                   : UTF-8
Codec ID                                 : S_TEXT/UTF8
Codec ID/Info                            : UTF-8 Plain Text
Duration                                 : 1 h 19 min
Bit rate                                 : 41 b/s
Count of elements                        : 1023
Stream size                              : 24.1 KiB (0%)
Title                                    : Full
Language                                 : French
Default                                  : No
Forced                                   : No

Text #3
ID                                       : 7
Format                                   : UTF-8
Codec ID                                 : S_TEXT/UTF8
Codec ID/Info                            : UTF-8 Plain Text
Duration                                 : 1 h 16 min
Bit rate                                 : 59 b/s
Count of elements                        : 808
Stream size                              : 33.3 KiB (0%)
Title                                    : Full
Language                                 : English
Default                                  : No
Forced                                   : No
Світлини



7. Астерікс завойовує Америку / Астерікс та Обелікс завойовують Америку / Asterix in America (1994) 1080p H.265 3xUkr/Fre | Sub Eng
Астерікс завойовує Америку / Астерікс та Обелікс завойовують Америку / Asterix in America (1994) 1080p H.265 3xUkr/Fre | Sub Eng

Астерікс. Колекція / Asterix. Collection (1967-2018) 1080p H.265 Ukr/Fre | Sub Ukr/Eng


Жанр: анімація, пригодницький, комедія
Країна: Німеччина, Франція
Кінокомпанія: Extrafilm, Hahn Film AG, Milimetros S.A.
Режисер: Ґергард Ган
Ролі озвучують: Роже Карель, П'єр Торнадо, Анрі Лабюс'єр, Жан Дортреме, Робер Парті, Олів'є Янкович, Наталі Спітцер

Сюжет:
«Вчора буде завтра позавчора» - так мовляли мудреці-друїди в далекі-далекі часи, коли люди вважали, що Земля найбільше схожа на піцу. Тоді був ще живий Юлій Цезар, якому і прийшла в голову думка, як римлянам перемогти волелюбних друїдів, що проживали в маленькому селі. За наказом імператора центуріон Луцій викрав друїда Панормікса і відправив його разом з псом Доґматіксом на край світу. Але за ними слідом ув'язалася славна парочка Астерікс і Обелікс...

Тривалість: 01:24:16
Якість:

Відео:
кодек: H.265 (HEVC)
розмір кадру: 1920 x 1032
бітрейт: 6 872 кб/с
бітова глибина: 10 біт

Увага! Перед завантаженням переконайтесь, що ваш пристрій відтворення (та/або ПЗ) підтримує H.265 (HEVC)

Аудіо # 1:
мова: українська
переклад: багатоголосий закадровий
кодек: AC-3 2.0
бітрейт: 192 кб/с

Аудіо # 2:
мова: українська
переклад: багатоголосий закадровий
кодек: AC-3 2.0
бітрейт: 192 кб/с

Аудіо # 3:
мова: українська
переклад: двоголосий закадровий
кодек: AC-3 2.0
бітрейт: 192 кб/с

Аудіо # 4:
мова: французька
переклад: оригінал
кодек: 2.0
бітрейт: 768 кб/с

Субтитри # 1: (Full)
мова: англійська
тип: програмні (м'які)
формат: *.srt


Info
Код:
General
Unique ID                                : 138304054795143000155846675539195131228 (0x680C645DC86DE42F30DB5D7C0248F55C)
Complete name                            : 7. Asterix in America (1994) 1080p H.265 [3xUKR_FRE] [Hurtom].
Format                                   :
Format version                           : Version 4
File size                                : 4.84 GiB
Duration                                 : 1 h 24 min
Overall bit rate                         : 8 176 kb/s
Movie name                               : Астерікс завойовує Америку / Астерікс та Обелікс завойовують Америку / Asterix in America (1994)
Encoded date                             : UTC 2019-08-13 20:15:43
Writing application                      : v20.0.0 ('I Am The Sun') 64-bit
Writing library                          : libebml v1.3.5 + v1.4.8
Cover                                    : Yes
Attachments                              : Cover.jpg

Video
ID                                       : 1
Format                                   : HEVC
Format/Info                              : High Efficiency Video Coding
Format profile                           : Main [email protected]@High
Codec ID                                 : V_MPEGH/ISO/HEVC
Duration                                 : 1 h 24 min
Bit rate                                 : 6 872 kb/s
Width                                    : 1 920 pixels
Height                                   : 1 032 pixels
Display aspect ratio                     : 1.85:1
Frame rate mode                          : Constant
Frame rate                               : 23.976 (24000/1001) FPS
Color space                              : YUV
Chroma subsampling                       : 4:2:0
Bit depth                                : 10 bits
Bits/(Pixel*Frame)                       : 0.145
Stream size                              : 4.04 GiB (84%)
Title                                    : Астерікс завойовує Америку / Астерікс та Обелікс завойовують Америку / Asterix in America (1994)
Language                                 : English
Default                                  : Yes
Forced                                   : No
Color range                              : Limited
Color primaries                          : BT.709
Transfer characteristics                 : BT.709
Matrix coefficients                      : BT.709

Audio #1
ID                                       : 2
Format                                   : AC-3
Format/Info                              : Audio Coding 3
Commercial name                          : Dolby Digital
Codec ID                                 : A_AC3
Duration                                 : 1 h 24 min
Bit rate mode                            : Constant
Bit rate                                 : 192 kb/s
Channel(s)                               : 2 channels
Channel layout                           : L R
Sampling rate                            : 48.0 kHz
Frame rate                               : 31.250 FPS (1536 SPF)
Bit depth                                : 16 bits
Compression mode                         : Lossy
Stream size                              : 116 MiB (2%)
Title                                    : / 2.0 Ch / 192 kbps / БЗ / Cine+
Language                                 : Ukrainian
Service kind                             : Complete Main
Default                                  : Yes
Forced                                   : Yes

Audio #2
ID                                       : 3
Format                                   : AC-3
Format/Info                              : Audio Coding 3
Commercial name                          : Dolby Digital
Codec ID                                 : A_AC3
Duration                                 : 1 h 24 min
Bit rate mode                            : Constant
Bit rate                                 : 192 kb/s
Channel(s)                               : 2 channels
Channel layout                           : L R
Sampling rate                            : 48.0 kHz
Frame rate                               : 31.250 FPS (1536 SPF)
Bit depth                                : 16 bits
Compression mode                         : Lossy
Stream size                              : 116 MiB (2%)
Title                                    : / 2.0 Ch / 192 kbps / БЗ / K1
Language                                 : Ukrainian
Service kind                             : Complete Main
Default                                  : No
Forced                                   : No

Audio #3
ID                                       : 4
Format                                   : AC-3
Format/Info                              : Audio Coding 3
Commercial name                          : Dolby Digital
Codec ID                                 : A_AC3
Duration                                 : 1 h 24 min
Bit rate mode                            : Constant
Bit rate                                 : 192 kb/s
Channel(s)                               : 2 channels
Channel layout                           : L R
Sampling rate                            : 48.0 kHz
Frame rate                               : 31.250 FPS (1536 SPF)
Bit depth                                : 16 bits
Compression mode                         : Lossy
Stream size                              : 116 MiB (2%)
Title                                    : / 2.0 Ch / 192 kbps / ДЗ / Novy Kanal
Language                                 : Ukrainian
Service kind                             : Complete Main
Default                                  : No
Forced                                   : No

Audio #4
ID                                       : 5
Format                                   :
Format/Info                              : Digital Theater Systems
Codec ID                                 : A_DTS
Duration                                 : 1 h 24 min
Bit rate mode                            : Constant
Bit rate                                 : 768 kb/s
Channel(s)                               : 2 channels
Channel layout                           : L R
Sampling rate                            : 48.0 kHz
Frame rate                               : 93.750 FPS (512 SPF)
Bit depth                                : 16 bits
Compression mode                         : Lossy
Stream size                              : 463 MiB (9%)
Title                                    : / 5.1 Ch / 768 kbps / Original
Language                                 : French
Default                                  : No
Forced                                   : No

Text
ID                                       : 6
Format                                   : UTF-8
Codec ID                                 : S_TEXT/UTF8
Codec ID/Info                            : UTF-8 Plain Text
Duration                                 : 1 h 22 min
Bit rate                                 : 54 b/s
Count of elements                        : 937
Stream size                              : 33.0 KiB (0%)
Title                                    : Full
Language                                 : English
Default                                  : Yes
Forced                                   : No
Світлини



8. Астерікс і вікінги / Asterix et les Vikings (2006) 1080p H.265 2xUkr/Fre | Sub Eng/Fre
Астерікс і вікінги / Asterix et les Vikings (2006) 1080p H.265 2xUkr/Fre | Sub Eng/Fre

Астерікс. Колекція / Asterix. Collection (1967-2018) 1080p H.265 Ukr/Fre | Sub Ukr/Eng


Жанр: анімація, пригодницький, комедія
Країна: Франція
Кінокомпанія: M6 Films, Mandarin SAS, 2d3D Animations
Режисер: Стефан Фельдмарк, Джеспер Мюллер
Актори: Роже Карель, Лоран Дойч, Сара Форест, Жак Франц, П'єр Пальмад, П'єр Чернія, Бернар Алан, Марк Альфос, Жуль Азем, Патрік Борґ

Сюжет:
Астерікс і Обелікс вперше у своєму житті повинні зустрітися з вікінгами. Безстрашні воїни з північної країни викрали племінника вождя галлів, юного Задиру. Місія надзвичайно небезпечна, тому що вікінги славляться як відчайдушні і безжальні воїни...

Тривалість: 01:18:07
Якість:

Відео:
кодек: H.265 (HEVC)
розмір кадру: 1912 x 1040
бітрейт: 6 872 кб/с
бітова глибина: 10 біт

Увага! Перед завантаженням переконайтесь, що ваш пристрій відтворення (та/або ПЗ) підтримує H.265 (HEVC)

Аудіо # 1:
мова: українська
переклад: багатоголосий закадровий
кодек: AC-3 2.0
бітрейт: 192 кб/с

Аудіо # 2:
мова: українська
переклад: багатоголосий закадровий
кодек: AC-3 2.0
бітрейт: 192 кб/с

Аудіо # 3:
мова: французька
переклад: оригінал
кодек: 5.1
бітрейт: 1510 кб/с

Субтитри # 1: (Full)
мова: англійська
тип: програмні (м'які)
формат: *.srt

Субтитри # 2: (Full)
мова: французька
тип: програмні (м'які)
формат: *.srt


Info
Код:
General
Unique ID                                : 224342325219113082747157716002858655278 (0xA8C6C29C071C8224E0121A36FED4DE2E)
Complete name                            : 8. Asterix et les Vikings (2006) 1080p H.265 [2xUKR_FRE] [Hurtom].
Format                                   :
Format version                           : Version 4
File size                                : 4.78 GiB
Duration                                 : 1 h 18 min
Overall bit rate                         : 8 756 kb/s
Movie name                               : Астерікс і вікінги / Asterix et les Vikings (2006)
Encoded date                             : UTC 2019-08-14 19:22:47
Writing application                      : v20.0.0 ('I Am The Sun') 64-bit
Writing library                          : libebml v1.3.5 + v1.4.8
Cover                                    : Yes
Attachments                              : Cover.jpg

Video
ID                                       : 1
Format                                   : HEVC
Format/Info                              : High Efficiency Video Coding
Format profile                           : Main [email protected]@High
Codec ID                                 : V_MPEGH/ISO/HEVC
Duration                                 : 1 h 18 min
Bit rate                                 : 6 872 kb/s
Width                                    : 1 912 pixels
Height                                   : 1 040 pixels
Display aspect ratio                     : 1.85:1
Frame rate mode                          : Constant
Frame rate                               : 23.976 (24000/1001) FPS
Color space                              : YUV
Chroma subsampling                       : 4:2:0
Bit depth                                : 10 bits
Bits/(Pixel*Frame)                       : 0.144
Stream size                              : 3.75 GiB (78%)
Title                                    : Астерікс і вікінги / Asterix et les Vikings (2006)
Language                                 : English
Default                                  : Yes
Forced                                   : No
Color range                              : Limited
Color primaries                          : BT.709
Transfer characteristics                 : BT.709
Matrix coefficients                      : BT.709

Audio #1
ID                                       : 2
Format                                   : AC-3
Format/Info                              : Audio Coding 3
Commercial name                          : Dolby Digital
Codec ID                                 : A_AC3
Duration                                 : 1 h 18 min
Bit rate mode                            : Constant
Bit rate                                 : 192 kb/s
Channel(s)                               : 2 channels
Channel layout                           : L R
Sampling rate                            : 48.0 kHz
Frame rate                               : 31.250 FPS (1536 SPF)
Bit depth                                : 16 bits
Compression mode                         : Lossy
Delay relative to video                  : 500 ms
Stream size                              : 107 MiB (2%)
Title                                    : / 2.0 Ch / 192 kbps / БЗ / TET
Language                                 : Ukrainian
Service kind                             : Complete Main
Default                                  : Yes
Forced                                   : Yes

Audio #2
ID                                       : 3
Format                                   : AC-3
Format/Info                              : Audio Coding 3
Commercial name                          : Dolby Digital
Codec ID                                 : A_AC3
Duration                                 : 1 h 18 min
Bit rate mode                            : Constant
Bit rate                                 : 192 kb/s
Channel(s)                               : 2 channels
Channel layout                           : L R
Sampling rate                            : 48.0 kHz
Frame rate                               : 31.250 FPS (1536 SPF)
Bit depth                                : 16 bits
Compression mode                         : Lossy
Delay relative to video                  : 500 ms
Stream size                              : 107 MiB (2%)
Title                                    : / 2.0 Ch / 192 kbps / БЗ / Novy Kanal
Language                                 : Ukrainian
Service kind                             : Complete Main
Default                                  : No
Forced                                   : No

Audio #3
ID                                       : 4
Format                                   :
Format/Info                              : Digital Theater Systems
Codec ID                                 : A_DTS
Duration                                 : 1 h 18 min
Bit rate mode                            : Constant
Bit rate                                 : 1 509 kb/s
Channel(s)                               : 6 channels
Channel layout                           : C L R Ls Rs LFE
Sampling rate                            : 48.0 kHz
Frame rate                               : 93.750 FPS (512 SPF)
Bit depth                                : 24 bits
Compression mode                         : Lossy
Stream size                              : 843 MiB (17%)
Title                                    : / 5.1 Ch / 1509 kbps / Original
Language                                 : French
Default                                  : No
Forced                                   : No

Text #1
ID                                       : 5
Format                                   : UTF-8
Codec ID                                 : S_TEXT/UTF8
Codec ID/Info                            : UTF-8 Plain Text
Duration                                 : 1 h 10 min
Bit rate                                 : 51 b/s
Count of elements                        : 744
Stream size                              : 26.4 KiB (0%)
Title                                    : Full
Language                                 : English
Default                                  : No
Forced                                   : No

Text #2
ID                                       : 6
Format                                   : UTF-8
Codec ID                                 : S_TEXT/UTF8
Codec ID/Info                            : UTF-8 Plain Text
Duration                                 : 1 h 10 min
Bit rate                                 : 58 b/s
Count of elements                        : 1045
Stream size                              : 29.9 KiB (0%)
Title                                    : Full
Language                                 : French
Default                                  : No
Forced                                   : No

Menu
00:00:00.000                             : en:00:00:00.000
00:07:38.776                             : en:00:07:38.776
00:13:21.368                             : en:00:13:21.368
00:22:27.581                             : en:00:22:27.581
00:31:04.931                             : en:00:31:04.931
00:38:22.326                             : en:00:38:22.326
00:46:44.494                             : en:00:46:44.494
00:53:51.254                             : en:00:53:51.254
01:00:21.602                             : en:01:00:21.602
01:05:52.892                             : en:01:05:52.892
Світлини



9. Астерікс. Земля богів / Asterix - Le Domaine des Dieux (2014) 1080p H.265 4xUkr/Fre | Sub Eng/Fre
Астерікс. Земля богів / Asterix - Le Domaine des Dieux (2014) 1080p H.265 4xUkr/Fre | Sub Eng/Fre

Астерікс. Колекція / Asterix. Collection (1967-2018) 1080p H.265 Ukr/Fre | Sub Ukr/Eng


Жанр: фентезі, комедія, дитячий, пригодницький
Країна: Франція
Кінокомпанія: M6 Studio, Belvision, GridAnimation
Режисер: Луїс Кліші, Олександр Астьє
Актори:Роже Карель, Гійом Бріа, ЛоранДойч, ЛоранЛафітт, Олександр Астьє, Ален Шаба, Елі Семун, ЖеральдінНакаш, Артюс де Пенгерн, ЛіонельАстьє

Сюжет:
Астерікс і його кращий друг Обелікс продовжують свою багаторічну боротьбу з Цезарем, який хоче нарешті розправитися з неприборканими галлами. Навколо села Астерікса Цезар наказує побудувати новий Рим - Землю Богів. У галльську селі хаос і сум'яття. Але Астерікс і Обелікс не здаються!

Тривалість: 01:25:30
Якість:

Відео:
кодек: H.265 (HEVC)
розмір кадру: 1920 x 1032
бітрейт: 6 886 кб/с
бітова глибина: 10 біт

Увага! Перед завантаженням переконайтесь, що ваш пристрій відтворення (та/або ПЗ) підтримує H.265 (HEVC)

Аудіо # 1:
мова: українська
переклад: багатоголосий закадровий ,
кодек: AC-3 2.0
бітрейт: 192 кб/с

Аудіо # 2:
мова: українська
переклад: багатоголосий закадровий
кодек: AC-3 2.0
бітрейт: 192 кб/с

Аудіо # 3:
мова: українська
переклад: багатоголосий закадровий
кодек: AC-3 2.0
бітрейт: 192 кб/с

Аудіо # 4:
мова: українська
переклад: багатоголосий закадровий
кодек: AC-3 2.0
бітрейт: 192 кб/с

Аудіо # 5:
мова: французька
переклад: оригінал
кодек: 5.1
бітрейт: 1510 кб/с

Субтитри # 1: (Full)
мова: англійська
тип: програмні (м'які)
формат: *.srt

Субтитри # 2: (SDH)
мова: французька
тип: пререндерні
формат: *.pgs


Info
Код:
General
Unique ID                                : 2099818226354083410023963415515265852 (0x19469081C059534AFA35556AB6C7B3C)
Complete name                            : 9. Asterix. Le domaine des dieux (2014) 1080p H.265 [4xUKR_FRE] [Hurtom].
Format                                   :
Format version                           : Version 4
File size                                : 5.48 GiB
Duration                                 : 1 h 25 min
Overall bit rate                         : 9 178 kb/s
Movie name                               : Астерікс: Земля Богів / Astérix: Le domaine des dieux (2014)
Encoded date                             : UTC 2019-08-13 20:40:46
Writing application                      : v20.0.0 ('I Am The Sun') 64-bit
Writing library                          : libebml v1.3.5 + v1.4.8
Cover                                    : Yes
Attachments                              : Cover.jpg

Video
ID                                       : 1
Format                                   : HEVC
Format/Info                              : High Efficiency Video Coding
Format profile                           : Main [email protected]@High
Codec ID                                 : V_MPEGH/ISO/HEVC
Duration                                 : 1 h 25 min
Bit rate                                 : 6 885 kb/s
Width                                    : 1 920 pixels
Height                                   : 1 032 pixels
Display aspect ratio                     : 1.85:1
Frame rate mode                          : Constant
Frame rate                               : 23.976 (24000/1001) FPS
Color space                              : YUV
Chroma subsampling                       : 4:2:0
Bit depth                                : 10 bits
Bits/(Pixel*Frame)                       : 0.145
Stream size                              : 4.11 GiB (75%)
Title                                    : Астерікс: Земля Богів / Astérix: Le domaine des dieux (2014)
Language                                 : English
Default                                  : Yes
Forced                                   : No
Color range                              : Limited
Color primaries                          : BT.709
Transfer characteristics                 : BT.709
Matrix coefficients                      : BT.709

Audio #1
ID                                       : 2
Format                                   : AC-3
Format/Info                              : Audio Coding 3
Commercial name                          : Dolby Digital
Codec ID                                 : A_AC3
Duration                                 : 1 h 25 min
Bit rate mode                            : Constant
Bit rate                                 : 192 kb/s
Channel(s)                               : 2 channels
Channel layout                           : L R
Sampling rate                            : 48.0 kHz
Frame rate                               : 31.250 FPS (1536 SPF)
Bit depth                                : 16 bits
Compression mode                         : Lossy
Stream size                              : 117 MiB (2%)
Title                                    : / 2.0 Ch / 192 kbps / БЗ / TET, 1+1
Language                                 : Ukrainian
Service kind                             : Complete Main
Default                                  : Yes
Forced                                   : Yes

Audio #2
ID                                       : 3
Format                                   : AC-3
Format/Info                              : Audio Coding 3
Commercial name                          : Dolby Digital
Codec ID                                 : A_AC3
Duration                                 : 1 h 25 min
Bit rate mode                            : Constant
Bit rate                                 : 192 kb/s
Channel(s)                               : 2 channels
Channel layout                           : L R
Sampling rate                            : 48.0 kHz
Frame rate                               : 31.250 FPS (1536 SPF)
Bit depth                                : 16 bits
Compression mode                         : Lossy
Stream size                              : 117 MiB (2%)
Title                                    : / 2.0 Ch / 192 kbps / БЗ / Cine+
Language                                 : Ukrainian
Service kind                             : Complete Main
Default                                  : No
Forced                                   : No

Audio #3
ID                                       : 4
Format                                   : AC-3
Format/Info                              : Audio Coding 3
Commercial name                          : Dolby Digital
Codec ID                                 : A_AC3
Duration                                 : 1 h 25 min
Bit rate mode                            : Constant
Bit rate                                 : 192 kb/s
Channel(s)                               : 2 channels
Channel layout                           : L R
Sampling rate                            : 48.0 kHz
Frame rate                               : 31.250 FPS (1536 SPF)
Bit depth                                : 16 bits
Compression mode                         : Lossy
Stream size                              : 117 MiB (2%)
Title                                    : / 2.0 Ch / 192 kbps / БЗ / K1
Language                                 : Ukrainian
Service kind                             : Complete Main
Default                                  : No
Forced                                   : No

Audio #4
ID                                       : 5
Format                                   : AC-3
Format/Info                              : Audio Coding 3
Commercial name                          : Dolby Digital
Codec ID                                 : A_AC3
Duration                                 : 1 h 25 min
Bit rate mode                            : Constant
Bit rate                                 : 192 kb/s
Channel(s)                               : 2 channels
Channel layout                           : L R
Sampling rate                            : 48.0 kHz
Frame rate                               : 31.250 FPS (1536 SPF)
Bit depth                                : 16 bits
Compression mode                         : Lossy
Stream size                              : 117 MiB (2%)
Title                                    : / 2.0 Ch / 192 kbps / БЗ / Line
Language                                 : Ukrainian
Service kind                             : Complete Main
Default                                  : No
Forced                                   : No

Audio #5
ID                                       : 6
Format                                   :
Format/Info                              : Digital Theater Systems
Codec ID                                 : A_DTS
Duration                                 : 1 h 25 min
Bit rate mode                            : Constant
Bit rate                                 : 1 509 kb/s
Channel(s)                               : 6 channels
Channel layout                           : C L R Ls Rs LFE
Sampling rate                            : 48.0 kHz
Frame rate                               : 93.750 FPS (512 SPF)
Bit depth                                : 24 bits
Compression mode                         : Lossy
Stream size                              : 923 MiB (16%)
Title                                    : / 5.1 Ch / 1509 kbps / Original
Language                                 : French
Default                                  : No
Forced                                   : No

Text #1
ID                                       : 7
Format                                   : UTF-8
Codec ID                                 : S_TEXT/UTF8
Codec ID/Info                            : UTF-8 Plain Text
Duration                                 : 1 h 24 min
Bit rate                                 : 48 b/s
Count of elements                        : 1161
Stream size                              : 30.3 KiB (0%)
Title                                    : Full
Language                                 : English
Default                                  : Yes
Forced                                   : No

Text #2
ID                                       : 8
Format                                   : PGS
Muxing mode                              : zlib
Codec ID                                 : S_HDMV/PGS
Codec ID/Info                            : Picture based subtitle format used on BDs/HD-DVDs
Duration                                 : 1 h 24 min
Bit rate                                 : 39.0 kb/s
Count of elements                        : 3231
Stream size                              : 23.6 MiB (0%)
Title                                    : SDH
Language                                 : French
Default                                  : No
Forced                                   : No

Menu
00:00:00.000                             : en:00:00:00.000
00:09:03.501                             : en:00:09:03.501
00:14:37.043                             : en:00:14:37.043
00:22:27.680                             : en:00:22:27.680
00:30:26.908                             : en:00:30:26.908
00:36:09.918                             : en:00:36:09.918
00:44:59.447                             : en:00:44:59.447
00:51:43.225                             : en:00:51:43.225
00:56:12.244                             : en:00:56:12.244
01:04:48.760                             : en:01:04:48.760
01:10:20.174                             : en:01:10:20.174
01:20:16.687                             : en:01:20:16.687
Світлини



10. Астерікс і таємне зілля / Astérix: Le secret de la potion magique (2018) 1080p H.265 Ukr/Fre | Sub Fre
Астерікс і таємне зілля / Astérix: Le secret de la potion magique (2018) 1080p H.265 Ukr/Fre | Sub Fre

Астерікс. Колекція / Asterix. Collection (1967-2018) 1080p H.265 Ukr/Fre | Sub Ukr/Eng


Жанр: анімація, комедія, сімейний, фентезі
Країна: Франція
Кінокомпанія: Canal+, M6 Studio
Режисер: Александр Астьє, Луїс Кліши
Ролі озвучують: Крістіан Клав'є, Ґійом Бріа, Алекс Лутц, Александр Астьє, Флоренс Форесті

Сюжет:
Якось збираючи омелу, старий досвідчений та поважний друїд Гетафікс падає з дерева. Пошкодивши ногу, він не може виконувати свій головний обов'язок – варити чудодійне зілля. Тож він вирішує відправитися через галльське озеро на пошуки молодого талановитого друїда, якому міг би передати свою майстерність. Разом з ним у цю подорож вирушать нерозлучні Астерікс і Обелікс. Самого ж друїда їм доведеться нести на собі.

Тривалість: 01:24:55
Якість:

Відео:
кодек: H.265 (HEVC)
розмір кадру: 1920 x 800
бітрейт: 6 828 кб/с
бітова глибина: 10 біт

Увага! Перед завантаженням переконайтесь, що ваш пристрій відтворення (та/або ПЗ) підтримує H.265 (HEVC)

Аудіо # 1:
мова: українська
переклад: професійний дубльований
кодек: AC-3 5.1
бітрейт: 384 кб/с

Аудіо # 2:
мова: французька
переклад: оригінал
кодек: 5.1
бітрейт: 1510 кб/с

Субтитри # 1: (Full)
мова: французька
тип: пререндерні
формат: *.pgs


Info
Код:
General
Unique ID                                : 277495024772914308579617582519635168779 (0xD0C39906FCACD8DDB537351B70044E0B)
Complete name                            : 10. Asterix. Le secret de la potion magique (2018) 1080p H.265 [UKR_FRE] [Hurtom].
Format                                   :
Format version                           : Version 4
File size                                : 5.18 GiB
Duration                                 : 1 h 24 min
Overall bit rate                         : 8 740 kb/s
Movie name                               : Астерікс і таємне зілля / Astérix: Le secret de la potion magique (2018)
Encoded date                             : UTC 2019-08-13 20:44:52
Writing application                      : v20.0.0 ('I Am The Sun') 64-bit
Writing library                          : libebml v1.3.5 + v1.4.8
Cover                                    : Yes
Attachments                              : cover.jpg

Video
ID                                       : 1
Format                                   : HEVC
Format/Info                              : High Efficiency Video Coding
Format profile                           : Main [email protected]@High
Codec ID                                 : V_MPEGH/ISO/HEVC
Duration                                 : 1 h 24 min
Bit rate                                 : 6 828 kb/s
Width                                    : 1 920 pixels
Height                                   : 800 pixels
Display aspect ratio                     : 2.40:1
Frame rate mode                          : Constant
Frame rate                               : 24.000 FPS
Color space                              : YUV
Chroma subsampling                       : 4:2:0
Bit depth                                : 10 bits
Bits/(Pixel*Frame)                       : 0.185
Stream size                              : 4.05 GiB (78%)
Title                                    : Астерікс і таємне зілля / Astérix: Le secret de la potion magique (2018)
Language                                 : English
Default                                  : Yes
Forced                                   : No
Color range                              : Limited
Color primaries                          : BT.709
Transfer characteristics                 : BT.709
Matrix coefficients                      : BT.709

Audio #1
ID                                       : 2
Format                                   : AC-3
Format/Info                              : Audio Coding 3
Commercial name                          : Dolby Digital
Codec ID                                 : A_AC3
Duration                                 : 1 h 24 min
Bit rate mode                            : Constant
Bit rate                                 : 384 kb/s
Channel(s)                               : 6 channels
Channel layout                           : L R C LFE Ls Rs
Sampling rate                            : 48.0 kHz
Frame rate                               : 31.250 FPS (1536 SPF)
Bit depth                                : 16 bits
Compression mode                         : Lossy
Stream size                              : 233 MiB (4%)
Title                                    : / 5.1 Ch / 384 kbps / ПД / iTunes
Language                                 : Ukrainian
Service kind                             : Complete Main
Default                                  : Yes
Forced                                   : Yes

Audio #2
ID                                       : 3
Format                                   :
Format/Info                              : Digital Theater Systems
Codec ID                                 : A_DTS
Duration                                 : 1 h 24 min
Bit rate mode                            : Constant
Bit rate                                 : 1 509 kb/s
Channel(s)                               : 6 channels
Channel layout                           : C L R Ls Rs LFE
Sampling rate                            : 48.0 kHz
Frame rate                               : 93.750 FPS (512 SPF)
Bit depth                                : 24 bits
Compression mode                         : Lossy
Stream size                              : 917 MiB (17%)
Title                                    : / 5.1 Ch / 1509 kbps / Original
Language                                 : French
Default                                  : No
Forced                                   : No

Text
ID                                       : 4
Format                                   : PGS
Muxing mode                              : zlib
Codec ID                                 : S_HDMV/PGS
Codec ID/Info                            : Picture based subtitle format used on BDs/HD-DVDs
Duration                                 : 1 h 24 min
Bit rate                                 : 41.0 kb/s
Count of elements                        : 3233
Stream size                              : 24.8 MiB (0%)
Title                                    : Full
Language                                 : French
Default                                  : Yes
Forced                                   : No

Menu
00:00:00.000                             : :Chapter 01
00:06:16.041                             : :Chapter 02
00:15:43.250                             : :Chapter 03
00:21:45.166                             : :Chapter 04
00:28:47.791                             : :Chapter 05
00:35:00.000                             : :Chapter 06
00:42:39.458                             : :Chapter 07
00:50:30.333                             : :Chapter 08
00:57:33.708                             : :Chapter 09
01:04:05.458                             : :Chapter 10
01:13:32.000                             : :Chapter 11
01:21:07.333                             : :Chapter 12
Світлини




Джерело:
Особиста оцінка: 10 - без зайвих вагань рекомендую всім!

Увага! Перед завантаженням переконайтесь, що ваш пристрій відтворення (та/або ПЗ) підтримує H.265 (HEVC)


 Трекер:    Зареєстрований   

Завантажити / скачати мультфільм українською



відео для новачків



 Зареєстрований:   2019-08-14 22:59
 Розмір:   45.99 GB 
 Оцінка мультфільму:   9.7/10 (Голосів: 7)
   
Ваш часовий пояс: GMT + 2 Години

Нова тема   Відповісти