Октонавти / The Octonauts (Сезон 1) (2010) 1080p

Нові коментарі

Нова тема   Відповісти
Автор Повідомлення
sergiyko.5 
VIP


З нами з: 25.02.16
Востаннє: 24.08.19
Повідомлень: 2443

2019-08-14 18:43  
Октонавти / The Octonauts (Сезон 1) (2010) 1080p

Октонавти / The Octonauts (Сезон 1) (2010) 1080p

Жанр: дитячий мультсеріал, пригоди
Країна: США, ІрландІя, Великобританія
Кінокомпанія: Brown Bag Films
Режисер: Керт Мюллер, Стефані Сімпсон, Кейтал Геффні, Деррег О'Коннел

Сюжет:
Сюжет розгортається на захопливих і цікавих морських глибинах, де на підводній базі оселилася команда з восьми шукачів пригод – Октонавтів.

Кожен день Октонавти подорожують екзотичними підводними місцями, захищаючи їх мешканців та розгадуючи таємниці морського дна.

В розробці анімаційного серіалу брали участь справжні морські біологи, тому маленькі глядачі зможуть побачити підводних мешканців в їх звичайному середовищі.




Тривалість: 1 серія: 12:55 (цілком серій: 50)
Якість:

Відео: кодек: розмір кадру: 1920 х 1080 бітрейт: 4000 кб/с
Аудіо: мова: українська переклад: багатоголосий закадровий кодек: 2.0 бітрейт: 192 кб/с
Озвучення:

Додаткова інформація: присутні написи російським наріччям.
Перелік серій
01 Октонавти і китова акула
02 Октонавти і підводний шторм
03 Октонавти і краб та морський їжак
04 Октонавти і вождь моржів
05 Октонавти і летюча риба
06 Октонавти і велетенський кальмар
07 Октонавти і косатки
08 Октонавти і втеча від морських водоростей
09 Октонавти і реміпеди
10 Октонавти і швидкісний вітрильник
11 Октонавти і брати риби-краплі
12 Октонавти і мапа чудовиськ
13 Октонавти і морська зірка що заблукала
14 Октонавти і горбатий кит альбінос
15 Октонавти і гігантський ліс водоростей
16 Октонавти і ворожі актинії
17 Октонавти і нарвал
18 Октонавти і опівнічна зона
19 Октонавти і криветка-клацалка
20 Октонавти і морський слизький огірок
21 Октонавти і гігантський коловорот
22 Октонавти і краби-самітники
23 Октонавти і перевернутий кит
25 Октонавти та краб-дикоратор
26 Октонавти і кити білухи
27 Октонавти і голодна риба-лоцман
28 Октонавти і кальмар-вампір
29 Октонавти і морські коники
30 Октонавти і гіганська медуза
31 Октонавти і сяючи акули
32 Октонавти і летюча риба
33 Октонавти і морський собака
34 Октонавти і рій медуз
35 Октонавти і дельфін малюк
36 Октонавти і ремінь-риба
37 Октонавти і арктичні косатки
38 Октонавти і міксини
39 Октонавти і велетенський морський слон
40 Октонавти і косяк сардин
41 Октонавти і дельфіни рятують риф
42 Октонавти і пригода з вуграми
43 Октонавти і морські ігуани
44 Октонавти і карликова акула-ліхтар
45 Октонавти і піратська риба-папуга
46 Октонавти і електричні скати
47 Октонавти і каракатиця
48 Октонавти і загублена лимонна акула
49 Октонавти і хуму-хуму нуку-нуку апуа
50 Октонавти і велетенський краб-павук
Про файл:
General
Unique ID : 145521232234619212245673939625049849123 (0x6D7A5EAFD4E7B75E175AC844995BFD23)
Complete name : E:\content\films\The Octonauts 1080p \The Octonauts S01 1080p \S01E01.Октонавти і китова акула .1080p..
Format :
Format version : Version 4
File size : 361 MiB
Duration : 12 min 0 s
Overall bit rate : 4 201 kb/s
Encoded date : UTC 2019-08-14 14:39:41
Writing application : v35.0.0 ('All The Love In The World') 64-bit
Writing library : libebml v1.3.9 + v1.5.2

Video
ID : 1
Format : AVC
Format/Info : Advanced Video Codec
Format profile : [email protected]
Format settings : CABAC / 3 Ref Frames
Format settings, CABAC : Yes
Format settings, Reference : 3 frames
Codec ID : V_MPEG4/ISO/AVC
Duration : 11 min 59 s
Bit rate : 4 000 kb/s
Width : 1 920 pixels
Height : 1 080 pixels
Display aspect ratio : 16:9
Frame rate mode : Constant
Frame rate : 25.000 FPS
Color space : YUV
Chroma subsampling : 4:2:0
Bit depth : 8 bits
Scan type : Progressive
Bits/(Pixel*Frame) : 0.077
Stream size : 344 MiB (95%)
Writing library : core 142 r2389 956c8d8
Encoding settings : cabac=1 / ref=3 / deblock=1:0:0 / analyse=0x3:0x133 / me=umh / subme=7 / psy=1 / psy_rd=1.00:0.00 / mixed_ref=1 / me_range=32 / chroma_me=1 / trellis=2 / 8x8dct=1 / cqm=0 / deadzone=21,11 / fast_pskip=1 / chroma_qp_offset=-2 / threads=12 / lookahead_threads=2 / sliced_threads=0 / nr=0 / decimate=1 / interlaced=0 / bluray_compat=0 / constrained_intra=0 / bframes=0 / weightp=0 / keyint=75 / keyint_min=26 / scenecut=40 / intra_refresh=0 / rc_lookahead=50 / rc=2pass / mbtree=0 / bitrate=4000 / ratetol=1.0 / qcomp=0.20 / qpmin=10 / qpmax=51 / qpstep=4 / cplxblur=20.0 / qblur=0.5 / vbv_maxrate=5000 / vbv_bufsize=5000 / nal_hrd=none / filler=0 / ip_ratio=1.40 / aq=1:1.00
Language : English
Default : Yes
Forced : No
Color range : Limited
Color primaries : BT.709
Transfer characteristics : BT.709
Matrix coefficients : BT.709

Audio
ID : 2
Format : LC
Format/Info : Advanced Audio Codec Low Complexity
Codec ID : A_AAC-2
Duration : 12 min 0 s
Bit rate : 192 kb/s
Channel(s) : 2 channels
Channel layout : L R
Sampling rate : 44.1 kHz
Frame rate : 43.066 FPS (1024 SPF)
Compression mode : Lossy
Stream size : 16.3 MiB (5%)
Language : Ukrainian
Default : Yes
Forced : No
Скріншоти:


 Трекер:    Зареєстрований   

Завантажити / скачати мультфільм українською



відео для новачків



 Зареєстрований:   2019-08-14 18:43
 Розмір:   17.59 GB 
 Оцінка мультсеріалу:   7/10 (Голосів: 3)
   
salandr 
Відео Гуртом - фільмокрай
Відео Гуртом - фільмокрай


З нами з: 14.10.12
Востаннє: 19.08.19
Повідомлень: 68

2019-08-15 22:13  
Кльово, а то вже сам збирався взятись, але ніяк не міг знайти FullHD з не російським відеорядом.

Англійської доріжки не буде?

Ваш часовий пояс: GMT + 2 Години

Нова тема   Відповісти