Вруміз / Vroomiz (Сезон 1-2) (2012) 1080p

Нові коментарі

Нова тема   Відповісти
Автор Повідомлення
sergiyko.5 
VIP


З нами з: 25.02.16
Востаннє: 17.08.19
Повідомлень: 2435

2019-08-14 13:50  
Вруміз / Vroomiz (Сезон 1-2) (2012) 1080p

Вруміз / Vroomiz (Сезон 1-2) (2012) 1080p

Жанр: пригоди, сімейний
Країна: Південна Корея
Режисер: Йонг Чул Джо

Сюжет:
Ласкаво просимо в фантастичний світ Вруміз! Тут, в місті Зіппо Сіті, ви познайомитеся з гепардом Спіді, мавпочкою Бангі, оленям Фарра, пандою Піті і жирафом Жеральдіна. Життя Вруміз сповнене пригод, небезпек і сюрпризів. Спіді і його друзі, вирішуючи проблеми Зіппо Сіті, з легкістю виходять з будь-якої ситуації, проявляючи неймовірну винахідливість




Тривалість: 1 серія: 13:10 (цілком серій: 49 з 52)
Якість: 1080p

Відео: кодек: розмір кадру: 1920 х 1080 бітрейт: ~ 4 000 кб/с
Аудіо: мова: українська переклад: багатоголосий закадровий кодек: 2.0 бітрейт: 192 кб/с

Додаткова інформація: присутні написи російським наріччям.
Перелік серій:

Сезон 1
01.Зниклі бешкетники
02.Шукаючі веселощі

04.Порятунок на швидкість
05.Клуб для особливих
06.Привід карбюраторного каньйона
07.Найкращій поліцейський
08.Віднесені вітром
09.Загадкова дорога
10.Місячний Бангі
11.Забутий друг
12.Брудна катастрофа
13.День розіграшів
14.Нічні пригоди
15.Гаражний розпродаж
16.Копіювальна машина
17.Маленький брехунець
18.Остуди двигун
19.Капітан чистоти

21.Фантастика
22.Юні детективи
23.Літня історія
24.Дух суперництва
25.На морському причалі
26.Легенда про дракона

Сезон 2
01.Нова подруга
02.Жартівлива хвороба
03.Хибна тривога
04.Циркове життя
05.Чарівна лампа

07.Гонка на льоду
08.Чиста перемога
09.Дідусь Стенлі
10.Несподівана перешкода
11.Парк проблем
12.Сором'язливий чемпіон
13.Неймовірний Дейв
14.Упертий пацієнт
15.Загроза на двох колесах
16.Загадки на спір
17.У пошуках скарбів
18.Нічна гонка
19.Прибульці в місті
20.Несподіваний поворот
21.Лісовий друг
22.Весела команда
23.Лети як вітер
24.Силач Піті
25.Різдвяна історія
26.Спіді повинен програти
Про файл:
General
Unique ID : 221372793851586187357463276567152212780 (0xA68AD968C8FA2E5C160F94096132BB2C)
Complete name : E:\content\films\Vroomiz 1080p \Vroomiz S01 1080p \Vroomiz.S01E01.Зниклі бешкетники.1080p..
Format :
Format version : Version 4
File size : 396 MiB
Duration : 13 min 12 s
Overall bit rate : 4 191 kb/s
Movie name : rip by sergiyko
Encoded date : UTC 2019-08-14 10:13:27
Writing application : v35.0.0 ('All The Love In The World') 64-bit
Writing library : libebml v1.3.9 + v1.5.2

Video
ID : 1
Format : AVC
Format/Info : Advanced Video Codec
Format profile : [email protected]
Format settings : CABAC / 3 Ref Frames
Format settings, CABAC : Yes
Format settings, Reference : 3 frames
Codec ID : V_MPEG4/ISO/AVC
Duration : 13 min 12 s
Bit rate : 4 000 kb/s
Width : 1 912 pixels
Height : 1 072 pixels
Display aspect ratio : 16:9
Frame rate mode : Constant
Frame rate : 25.000 FPS
Color space : YUV
Chroma subsampling : 4:2:0
Bit depth : 8 bits
Scan type : Progressive
Bits/(Pixel*Frame) : 0.078
Stream size : 378 MiB (95%)
Writing library : core 142 r2431 ac76440
Encoding settings : cabac=1 / ref=3 / deblock=1:0:0 / analyse=0x3:0x133 / me=umh / subme=7 / psy=1 / psy_rd=1.00:0.00 / mixed_ref=1 / me_range=32 / chroma_me=1 / trellis=2 / 8x8dct=1 / cqm=0 / deadzone=21,11 / fast_pskip=1 / chroma_qp_offset=-2 / threads=12 / lookahead_threads=2 / sliced_threads=0 / nr=0 / decimate=1 / interlaced=0 / bluray_compat=0 / constrained_intra=0 / bframes=0 / weightp=0 / keyint=75 / keyint_min=26 / scenecut=40 / intra_refresh=0 / rc_lookahead=50 / rc=2pass / mbtree=0 / bitrate=4000 / ratetol=1.0 / qcomp=0.20 / qpmin=10 / qpmax=51 / qpstep=4 / cplxblur=20.0 / qblur=0.5 / vbv_maxrate=5000 / vbv_bufsize=5000 / nal_hrd=none / filler=0 / ip_ratio=1.40 / aq=1:1.00
Language : English
Default : Yes
Forced : No
Color range : Limited
Color primaries : BT.709
Transfer characteristics : BT.709
Matrix coefficients : BT.709

Audio
ID : 2
Format : LC
Format/Info : Advanced Audio Codec Low Complexity
Codec ID : A_AAC-2
Duration : 13 min 12 s
Bit rate : 192 kb/s
Channel(s) : 2 channels
Channel layout : L R
Sampling rate : 44.1 kHz
Frame rate : 43.066 FPS (1024 SPF)
Compression mode : Lossy
Stream size : 17.9 MiB (5%)
Language : Ukrainian
Default : Yes
Forced : No
Скріншоти:


Золотий реліз (завантажене не впливає на рейтинг)
 Трекер:    Зареєстрований   

Завантажити / скачати мультфільм українською



відео для новачків



 Зареєстрований:   2019-08-14 13:50
 Розмір:   19.3 GB 
 Оцінка мультсеріалу:   10/10 (Голосів: 3)
   
Ваш часовий пояс: GMT + 2 Години

Нова тема   Відповісти