Робопотяги / Robot Trains (Сезон 1) (2017) AVC

Нові коментарі

Нова тема   Відповісти
Автор Повідомлення
sergiyko.5 
VIP


З нами з: 25.02.16
Востаннє: 18.08.19
Повідомлень: 2436

2019-08-14 13:06  
Робопотяги / Robot Trains (Сезон 1) (2017) AVC

Робопотяги / Robot Trains (Сезон 1) (2017) AVC

Жанр: пригоди, сімейний
Країна: Південна Корея
Кінокомпанія: Formula Comics Entertainment
Режисер: Ю Лі

Сюжет:
Кей найсильніший в світі роботопотягів і тільки він може відкривати тунелі між зонами. Але в бою з охопленим вірусом потягом Дюком, Кей втратив пам’ять. І тепер його друзі намагаються допомогти йому згадати все!

Мультфільм «Робопотяги» розповість нам про синього потужного потяга Кея і його команду вірних друзів. Разом з ними ми буде прокладати нові залізні дороги між континентами і перемагати підступних ворогів. Кей і його друзі впораються з будь-якою проблемою, тому що вони не просто потяги! Вони – трансформери!

Вперед, потяги!




Тривалість: 1 серія: 12:51 (цілком серій: 32 з 32)
Якість:

Відео: кодек: розмір кадру: 1024 х 576 бітрейт: 1500 кб/с
Аудіо: мова: українська переклад: багатоголосий закадровий кодек: MP2 бітрейт: 192 кб/с
Озвучення:
Перелік серій
01.The Adventure Begins
02.Duke the Liar
03.Lost Memories
04.Runaway Virus Train
05.Run, Kay, Run
06.Here Comes Alf
07.Repairing the Clock Tower
08.Kay and Alf
09.A Recovered Friendship
10.Janne and Kay
11.Selly's Special Training
12.Alf Opens Up
13.Uninvited Guest
14.Close Victory
15.Go, Robot Trains
16.The Festival
17.Duke Awakens
18.Hang in There, Kay
19.Victor Arrives
20.Victor Is Back
21.The Secret of Alpha Train
22.Duke Speaks His Mind
23.Kay and Duke
24.Kay's Unusual Training
25.The Time Tunnel
26.Another World
27.Victor Is in Danger
28.All for One and One for All
29.Faltering Friendship
30.The Attack of the Virus
31.The Train World Is in Danger
32.To the New World
Про файл:
General
Unique ID : 319555089287535752509746017187246580199 (0xF06812500DB54697DF946E1178FF21E7)
Complete name : E:\content\films\Robot Trains S01 \S01E01.The Adventure Begins..
Format :
Format version : Version 4
File size : 157 MiB
Duration : 12 min 52 s
Overall bit rate : 1 707 kb/s
Movie name : rip by sergiyko
Encoded date : UTC 2019-08-07 20:35:00
Writing application : v35.0.0 ('All The Love In The World') 64-bit
Writing library : libebml v1.3.9 + v1.5.2

Video
ID : 1
Format : AVC
Format/Info : Advanced Video Codec
Format profile : [email protected]
Format settings : CABAC / 7 Ref Frames
Format settings, CABAC : Yes
Format settings, Reference : 7 frames
Codec ID : V_MPEG4/ISO/AVC
Duration : 12 min 52 s
Bit rate : 1 513 kb/s
Width : 1 024 pixels
Height : 576 pixels
Display aspect ratio : 16:9
Frame rate mode : Constant
Frame rate : 25.000 FPS
Color space : YUV
Chroma subsampling : 4:2:0
Bit depth : 8 bits
Scan type : Progressive
Bits/(Pixel*Frame) : 0.103
Stream size : 139 MiB (89%)
Writing library : core 157 r2969 d4099dd
Encoding settings : cabac=1 / ref=7 / deblock=1:-1:-1 / analyse=0x3:0x133 / me=umh / subme=9 / psy=1 / psy_rd=1.00:0.00 / mixed_ref=1 / me_range=24 / chroma_me=1 / trellis=2 / 8x8dct=1 / cqm=0 / deadzone=21,11 / fast_pskip=1 / chroma_qp_offset=-2 / threads=18 / lookahead_threads=3 / sliced_threads=0 / nr=0 / decimate=1 / interlaced=0 / bluray_compat=0 / constrained_intra=0 / bframes=8 / b_pyramid=2 / b_adapt=2 / b_bias=0 / direct=3 / weightb=1 / open_gop=0 / weightp=2 / keyint=250 / keyint_min=25 / scenecut=40 / intra_refresh=0 / rc_lookahead=60 / rc=crf / mbtree=1 / crf=21.0 / qcomp=0.60 / qpmin=0 / qpmax=69 / qpstep=4 / ip_ratio=1.40 / aq=1:1.00
Language : English
Default : Yes
Forced : No

Audio
ID : 2
Format : MPEG Audio
Format version : Version 1
Format profile : Layer 2
Codec ID : A_MPEG/L2
Codec ID/Hint : MP2
Duration : 12 min 52 s
Bit rate mode : Constant
Bit rate : 192 kb/s
Channel(s) : 2 channels
Sampling rate : 48.0 kHz
Frame rate : 41.667 FPS (1152 SPF)
Compression mode : Lossy
Stream size : 17.7 MiB (11%)
Title : MOV MP2 2ch PIXEL
Language : Ukrainian
Default : Yes
Forced : No
Скріншоти:


Запис/ріп: sergiyko


Бронзовий реліз (на рейтинг впливає 75% завантаженого)
 Трекер:    Зареєстрований   

Завантажити / скачати мультфільм українською



відео для новачків



 Зареєстрований:   2019-08-14 13:06
 Розмір:   4.2 GB 
 Оцінка мультсеріалу:   10/10 (Голосів: 1)
   
Ваш часовий пояс: GMT + 2 Години

Нова тема   Відповісти