Закулісні ігри (Сезони 1-3) / Les hommes de l'ombre (Seasons 1-3) (2012-2016) 1080p Ukr/Fre | sub Eng

Нові коментарі

Нова тема   Відповісти
Автор Повідомлення
Anonymous 







2019-08-14 00:38  
Закулісні ігри (Сезони 1-3) / Les hommes de l'ombre (Seasons 1-3) (2012-2016) 1080p Ukr/Fre | sub Eng

Закулісні ігри (Сезони 1-3) / Les hommes de l'ombre (Seasons 1-3) (2012-2016) 1080p Ukr/Fre | sub Eng


Жанр: драма, політичний трилер
Країна: Франція



Кінокомпанія: Macondo, Tetra Media Fiction, France Télévision
Режисер: Фредерік Телльє
Актори: Наталі Бай, Бруно Волковіч, Філіп Маньян, Грегорі Фетуссі, Валері Карсенті, Ів Піньо, Клементін Пуадац та ін.

Сюжет:
Всі громадяни країни перебувають у шоковому стані з того часу, як на президента Франції було скоєно замах. Це стало початком політичної гри та інтриг. На пост президента мітять кілька політиків, кожен з яких має свої таємниці. Один з кандидатів навіть знає деякі подробиці замаху, але вперто про це мовчить.


Тривалість: 1 серія: ~ 45 хв. (цілком серій: 17 (по 6 в кожному сезоні (у другому сезоні відсутня друга серія))
Перелік серій
Season 1
01 - L'attentat
02 - La candidate
03 - La conquête du centre
04 - Le témoin
05 - Le témoin
06 - Trahisons

Season 2
01 - L'accident
02 - La guerre des nerfs
03 - Otages
04 - La cuillère du diable
05 - Chantage
06 - L'exercice du pouvoir

Season 3
01 - Mort en direct
02 - La femme de l'ombre
03 - Politique People
04 - Manipulations
05 - Trahisons
06 - Fin de partie
Якість:
Відео:
кодек:
розмір кадру: 1920 х 1080 (1-2), 1920 х 960 (3)
бітрейт: 6 324 кб/с

Аудіо # 1:
мова: українська
переклад: двоголосий закадровий
кодек: 2.0
бітрейт: 192 кб/с

Аудіо # 2:
мова: французька
переклад: оригінал
кодек: E- 2.0
бітрейт: 224 кб/с

Джерело озвучення:
Перший Західний
За запис з ТБ дякуємо пану Neytreenor

Субтитри:
мова: англійська
тип: програмні (м'які) (1-3), вбудовані (жорсткі) (3)
формат: *.srt
Info (1-2)
General
Unique ID : 90401813094486945802717207824012281809 (0x4402C181C80A07B83B6017A8964A07D1)
Complete name : Les hommes de l'ombre S01E01 (2012) 1080p [UKR.FRE, sub ENG] [Hurtom].
Format :
Format version : Version 4
File size : 2.17 GiB
Duration : 46 min 2 s
Overall bit rate mode : Variable
Overall bit rate : 6 742 kb/s
Movie name : Закулісні ігри (Сезон 1, серія 1) (2012)
Encoded date : UTC 2019-05-05 17:02:43
Writing application : v30.1.0 ('Forever And More') 32-bit
Writing library : libebml v1.3.6 + v1.4.9
Cover : Yes
Attachments : cover.jpg

Video
ID : 1
Format : AVC
Format/Info : Advanced Video Codec
Format profile : [email protected]
Format settings : CABAC / 4 Ref Frames
Format settings, CABAC : Yes
Format settings, ReFrames : 4 frames
Codec ID : V_MPEG4/ISO/AVC
Duration : 46 min 2 s
Bit rate mode : Variable
Bit rate : 6 324 kb/s
Maximum bit rate : 15.0 Mb/s
Width : 1 920 pixels
Height : 1 080 pixels
Display aspect ratio : 16:9
Frame rate mode : Constant
Frame rate : 25.000 FPS
Color space : YUV
Chroma subsampling : 4:2:0
Bit depth : 8 bits
Scan type : Progressive
Bits/(Pixel*Frame) : 0.122
Stream size : 2.03 GiB (94%)
Language : French
Default : Yes
Forced : No
Color range : Limited
Color primaries : BT.709
Transfer characteristics : BT.709
Matrix coefficients : BT.709

Audio #1
ID : 2
Format : AC-3
Format/Info : Audio Coding 3
Commercial name : Dolby Digital
Codec ID : A_AC3
Duration : 46 min 2 s
Bit rate mode : Constant
Bit rate : 192 kb/s
Channel(s) : 2 channels
Channel layout : L R
Sampling rate : 48.0 kHz
Frame rate : 31.250 FPS (1536 SPF)
Bit depth : 16 bits
Compression mode : Lossy
Stream size : 63.2 MiB (3%)
Language : Ukrainian
Service kind : Complete Main
Default : Yes
Forced : Yes

Audio #2
ID : 3
Format : E-AC-3
Format/Info : Enhanced AC-3
Commercial name : Dolby Digital Plus
Codec ID : A_EAC3
Duration : 46 min 2 s
Bit rate mode : Constant
Bit rate : 224 kb/s
Channel(s) : 2 channels
Channel layout : L R
Sampling rate : 48.0 kHz
Frame rate : 31.250 FPS (1536 SPF)
Compression mode : Lossy
Stream size : 73.8 MiB (3%)
Language : French
Service kind : Complete Main
Default : No
Forced : No

Text
ID : 4
Format : UTF-8
Codec ID : S_TEXT/UTF8
Codec ID/Info : UTF-8 Plain Text
Duration : 44 min 17 s
Bit rate : 60 b/s
Count of elements : 591
Stream size : 19.6 KiB (0%)
Language : English
Default : No
Forced : No
Info (3)
General
Unique ID : 63456506741613646481963670998045857460 (0x2FBD47559B0B4E6C835BE398968296B4)
Complete name : Les hommes de l'ombre S03E01 (2016) 1080p [UKR.FRE, sub ENG] [Hurtom].
Format :
Format version : Version 4
File size : 2.80 GiB
Duration : 48 min 51 s
Overall bit rate mode : Variable
Overall bit rate : 8 197 kb/s
Movie name : Закулісні ігри (сезон 3, серія 1) (2016)
Encoded date : UTC 2019-05-24 11:08:52
Writing application : v30.1.0 ('Forever And More') 32-bit
Writing library : libebml v1.3.6 + v1.4.9
Cover : Yes
Attachments : cover.jpg

Video
ID : 1
Format : AVC
Format/Info : Advanced Video Codec
Format profile : [email protected]
Format settings : CABAC / 4 Ref Frames
Format settings, CABAC : Yes
Format settings, ReFrames : 4 frames
Codec ID : V_MPEG4/ISO/AVC
Duration : 48 min 51 s
Bit rate mode : Variable
Bit rate : 7 778 kb/s
Maximum bit rate : 15.0 Mb/s
Width : 1 920 pixels
Height : 960 pixels
Display aspect ratio : 2.000
Frame rate mode : Constant
Frame rate : 25.000 FPS
Color space : YUV
Chroma subsampling : 4:2:0
Bit depth : 8 bits
Scan type : Progressive
Bits/(Pixel*Frame) : 0.169
Stream size : 2.65 GiB (95%)
Language : French
Default : Yes
Forced : No
Color range : Limited
Color primaries : BT.709
Transfer characteristics : BT.709
Matrix coefficients : BT.709

Audio #1
ID : 2
Format : AC-3
Format/Info : Audio Coding 3
Commercial name : Dolby Digital
Codec ID : A_AC3
Duration : 48 min 50 s
Bit rate mode : Constant
Bit rate : 192 kb/s
Channel(s) : 2 channels
Channel layout : L R
Sampling rate : 48.0 kHz
Frame rate : 31.250 FPS (1536 SPF)
Bit depth : 16 bits
Compression mode : Lossy
Stream size : 67.1 MiB (2%)
Language : Ukrainian
Service kind : Complete Main
Default : Yes
Forced : Yes

Audio #2
ID : 3
Format : E-AC-3
Format/Info : Enhanced AC-3
Commercial name : Dolby Digital Plus
Codec ID : A_EAC3
Duration : 48 min 50 s
Bit rate mode : Constant
Bit rate : 224 kb/s
Channel(s) : 2 channels
Channel layout : L R
Sampling rate : 48.0 kHz
Frame rate : 31.250 FPS (1536 SPF)
Compression mode : Lossy
Stream size : 78.3 MiB (3%)
Language : French
Service kind : Complete Main
Default : No
Forced : No

Text
ID : 4
Format : UTF-8
Codec ID : S_TEXT/UTF8
Codec ID/Info : UTF-8 Plain Text
Duration : 48 min 16 s
Bit rate : 51 b/s
Count of elements : 671
Stream size : 18.3 KiB (0%)
Title : Eclair Media
Language : English
Default : No
Forced : No
Скріншоти
Джерело:


 Трекер:    Зареєстрований   

Завантажити / скачати серіал українською



відео для новачків



 Зареєстрований:   2019-08-14 00:38
 Розмір:   43.97 GB 
 Оцінка серіалу:   9.7/10 (Голосів: 3)
   
Anonymous 







2019-08-14 00:41  
Цитата:
у другому сезоні відсутня друга серія

повторю ще тут, щоб потім не виникало запитань - S02E02 відсутня тому, що канал не показав її
якщо хтось захоче зробити українські субтитри до цієї серії, то можу надати англійські субтитри

Ваш часовий пояс: GMT + 2 Години

Нова тема   Відповісти