Вогнеборці / Only the Brave (2017) 720p Ukr/Eng | Sub Eng

Нові коментарі

Нова тема   Відповісти
Автор Повідомлення
Anonymous 







2019-08-12 23:03  
Вогнеборці / Only the Brave (2017) 720p Ukr/Eng | Sub Eng



Жанр: біографічний, драма
Країна: США



Кінокомпанія: Sony / Columbia, Black Label Media, Conde Nast Entertainment, Di Bonaventura Pictures
Режисер: Джозеф Косінскі / Joseph Kosinski
Ролі озвучують: Джош Бролін, Майлз Теллер, Джефф Бріджес, Дженніфер Коннеллі, Джеймс Бедж Дейл, Тейлор Кітч, Енді МакДавелл, Джофф Стульц, Алекс Расселл, Тед Лакінбілл та інші

Сюжет:
Головні герої фільму – пожежники. Вони все життя тренувалися для того, щоб у разі необхідності захистити своє рідне місто від вогню. Влітку 2013 року в горах поруч з містом Прескотт в штаті Арізона через блискавку спалахнула небувала пожежа. На її гасіння було кинуто всі сили. У тому числі загін «Granite Mountain Hotshots».




Тривалість: 02:14:03
Якість: 720p

Відео:
кодек:
розмір кадру: 1280х536
бітрейт: 5800 Кб/с

Аудіо # 1:
мова: українська
переклад: багатоголосий закадровий
кодек: 2.0 [стерео]
бітрейт: 192 кб/с

Аудіо # 2:
мова: англійська
переклад: оригінал
кодек: 5.1
бітрейт: 640 кб/с

Аудіо # 3:
мова: англійська
переклад: коментарі актора Джоша Броліна та режисера Джозефа Косінскі
кодек: 2.0
бітрейт: 192 кб/с

Субтитри # 1-2:
мова: англійська (повні, SDH)
тип: програмні (м'які)
формат: *.srt

Субтитри # 3:
мова: англійська (коментарі)
тип: пререндерні
формат: pgs
Info, log, примітки від ріппера
Код:

Complete name               : Only the Brave (2017) [Ukr,Eng sub.Eng] 720p [Hurtom].
Format                      :
Format version              : Version 4
File size                   : 6.41 GiB
Duration                    : 2 h 14 min
Overall bit rate            : 6 846 kb/s
Movie name                  : Вогнеборці / Only the Brave (2017) [Ukr,Eng sub.Eng] 720p [Hurtom]
Encoded date                : UTC 2019-08-17 04:32:21
Writing application         : v36.0.0 ('Is That Jazz?') 64-bit
Writing library             : libebml v1.3.9 + v1.5.2
Cover                       : Yes
Attachments                 : cover.jpg

Video
ID                          : 1
Format                      : AVC
Format/Info                 : Advanced Video Codec
Format profile              : [email protected]
Format settings             : CABAC / 12 Ref Frames
Format settings, CABAC      : Yes
Format settings, Reference  : 12 frames
Codec ID                    : V_MPEG4/ISO/AVC
Duration                    : 2 h 14 min
Bit rate                    : 5 800 kb/s
Width                       : 1 280 pixels
Height                      : 536 pixels
Display aspect ratio        : 2.40:1
Frame rate mode             : Constant
Frame rate                  : 23.976 (24000/1001) FPS
Color space                 : YUV
Chroma subsampling          : 4:2:0
Bit depth                   : 8 bits
Scan type                   : Progressive
Bits/(Pixel*Frame)          : 0.353
Stream size                 : 5.43 GiB (85%)
Title                       : Вогнеборці / Only the Brave (2017) 720p [KASHMiR]
Writing library             : core 152 r2851kMod ba24899
Encoding settings           : cabac=1 / ref=12 / deblock=1:-3:-3 / analyse=0x3:0x133 / me=umh / subme=11 / psy=1 / fade_compensate=0.00 / psy_rd=1.05:0.00 / mixed_ref=1 / me_range=32 / chroma_me=1 / trellis=2 / 8x8dct=1 / cqm=0 / deadzone=21,11 / fast_pskip=0 / chroma_qp_offset=-2 / threads=12 / lookahead_threads=2 / sliced_threads=0 / slices=4 / nr=0 / decimate=0 / interlaced=0 / bluray_compat=0 / constrained_intra=0 / bframes=8 / b_pyramid=2 / b_adapt=2 / b_bias=0 / direct=3 / weightb=1 / open_gop=0 / weightp=2 / keyint=250 / keyint_min=23 / scenecut=40 / intra_refresh=0 / rc_lookahead=40 / rc=2pass / mbtree=0 / bitrate=5800 / ratetol=1.0 / qcomp=0.60 / qpmin=0 / qpmax=69 / qpstep=4 / cplxblur=20.0 / qblur=0.5 / vbv_maxrate=50000 / vbv_bufsize=62500 / nal_hrd=none / filler=0 / ip_ratio=1.30 / pb_ratio=1.25 / aq=3:0.80 / zones=1,2164,b=1.5/19192,264117,b=1.3/69570,71158,b=1.5/74073,76939,b=1.4/96190,98651,b=1.3/101760,105981,b=1.5/121100,141490,b=1.4/168400,171000,b=1.15
Language                    : English
Default                     : Yes
Forced                      : No
Color range                 : Limited
Matrix coefficients         : BT.709

Audio #1
ID                          : 2
Format                      : AC-3
Format/Info                 : Audio Coding 3
Commercial name             : Dolby Digital
Codec ID                    : A_AC3
Duration                    : 2 h 14 min
Bit rate mode               : Constant
Bit rate                    : 192 kb/s
Channel(s)                  : 2 channels
Channel layout              : L R
Sampling rate               : 48.0 kHz
Frame rate                  : 31.250 FPS (1536 SPF)
Bit depth                   : 16 bits
Compression mode            : Lossy
Stream size                 : 184 MiB (3%)
Title                       : MVO [Inter] 2.0 [stereo] 192 Kbps
Language                    : Ukrainian
Service kind                : Complete Main
Default                     : Yes
Forced                      : No

Audio #2
ID                          : 3
Format                      : AC-3
Format/Info                 : Audio Coding 3
Commercial name             : Dolby Digital
Codec ID                    : A_AC3
Duration                    : 2 h 14 min
Bit rate mode               : Constant
Bit rate                    : 640 kb/s
Channel(s)                  : 6 channels
Channel layout              : L R C LFE Ls Rs
Sampling rate               : 48.0 kHz
Frame rate                  : 31.250 FPS (1536 SPF)
Bit depth                   : 16 bits
Compression mode            : Lossy
Stream size                 : 614 MiB (9%)
Title                       : Original, 5.1 640 Kbps
Language                    : English
Service kind                : Complete Main
Default                     : No
Forced                      : No

Audio #3
ID                          : 4
Format                      : AC-3
Format/Info                 : Audio Coding 3
Commercial name             : Dolby Digital
Codec ID                    : A_AC3
Duration                    : 2 h 14 min
Bit rate mode               : Constant
Bit rate                    : 192 kb/s
Channel(s)                  : 2 channels
Channel layout              : L R
Sampling rate               : 48.0 kHz
Frame rate                  : 31.250 FPS (1536 SPF)
Bit depth                   : 16 bits
Compression mode            : Lossy
Stream size                 : 184 MiB (3%)
Title                       : Commentary
Language                    : English
Service kind                : Complete Main
Default                     : No
Forced                      : No

Text #1
ID                          : 5
Format                      : UTF-8
Codec ID                    : S_TEXT/UTF8
Codec ID/Info               : UTF-8 Plain Text
Duration                    : 2 h 4 min
Bit rate                    : 63 b/s
Count of elements           : 2067
Stream size                 : 58.1 KiB (0%)
Title                       : Eng Full
Language                    : English
Default                     : No
Forced                      : No

Text #2
ID                          : 6
Format                      : UTF-8
Codec ID                    : S_TEXT/UTF8
Codec ID/Info               : UTF-8 Plain Text
Duration                    : 2 h 9 min
Bit rate                    : 72 b/s
Count of elements           : 2273
Stream size                 : 68.9 KiB (0%)
Title                       : Eng SDH
Language                    : English
Default                     : No
Forced                      : No

Text #3
ID                          : 7
Format                      : PGS
Muxing mode                 : zlib
Codec ID                    : S_HDMV/PGS
Codec ID/Info               : Picture based subtitle format used on BDs/HD-DVDs
Duration                    : 2 h 9 min
Bit rate                    : 72.4 kb/s
Count of elements           : 4973
Stream size                 : 67.1 MiB (1%)
Title                       : Eng Commentary
Language                    : English
Default                     : No
Forced                      : No

Menu
00:00:00.000                : en:Chapter 1
00:06:39.107                : en:Chapter 2
00:16:14.891                : en:Chapter 3
00:26:30.297                : en:Chapter 4
00:34:26.856                : en:Chapter 5
00:43:54.298                : en:Chapter 6
00:51:29.336                : en:Chapter 7
00:59:18.430                : en:Chapter 8
01:08:27.312                : en:Chapter 9
01:16:19.366                : en:Chapter 10
01:24:16.468                : en:Chapter 11
01:32:51.524                : en:Chapter 12
01:39:07.567                : en:Chapter 13
01:45:11.972                : en:Chapter 14
01:52:54.935                : en:Chapter 15
02:02:04.776                : en:Chapter 16

Код:
Log
[info]: frame I:1404  Avg QP:14.56  size:133178
[info]: frame P:43467 Avg QP:16.58  size: 55160
[info]: frame B:147969 Avg QP:18.12  size: 21933
encoded 192840 frames, 10.30 fps, 5798.85 kb/s, duration 5:12:00.02


Цитата:
Notes : Dark and 'fire' scenes separated. Dirty lines where fixed(bottom).




Джерело: &
Подяка п.krigg070 за доріжку.


 Трекер:    Зареєстрований   

Завантажити / скачати фільм українською



відео для новачків



 Зареєстрований:   2019-08-17 08:06
 Розмір:   6.41 GB 
 Оцінка фільму:   9.7/10 (Голосів: 18)
 ЗАЛИШАЙТЕСЬ ЯКОМОГА ДОВШЕ НА РОЗДАЧІ! ЗАВАНТАЖИВ САМ - ДАЙ ЗАВАНТАЖИТИ ІНШИМ!
   
Інші релізи
   Вогнеборці / Only the Brave (2017) Remux 1080p Ukr/Eng | Sub Eng kryk-v.ya.  18 / 0   25.75 GB   2019-08-17 19:57 
   Вогнеборці / Only the Brave (2017) Electroz  48 / 0   1.46 GB   2019-08-17 02:10 
   Вогнеборці / Only the Brave (2017) AVC Ukr/Eng | Sub Eng krigg070  40 / 1   2.58 GB   2019-08-17 00:32 
roriloi 
Новенький


З нами з: 24.11.12
Востаннє: 18.08.19
Повідомлень: 7

2019-08-13 16:26  
Коли буде можливість завантажити?
Anonymous 







2019-08-13 16:28  
roriloi
Цитата:
~ 17.08

Alexsius 
Новенький


З нами з: 27.08.13
Востаннє: 23.08.19
Повідомлень: 8

2019-08-13 22:31  
А що за звук буде, дубляж чи озвучка?
Anonymous 







2019-08-13 22:49  
Alexsius, буде те, що покажуть по Інтеру.
NickShaptala 
Новенький


З нами з: 16.03.19
Востаннє: 21.08.19
Повідомлень: 3

2019-08-16 20:25  
Фільм просто супер! Проймає до самих печінок!
bot 
робот


З нами з: 30.09.07
Востаннє: 26.05.05
Повідомлень: 21794

2019-08-17 08:06  
Тему перенесено з Анонси релізів до форуму Фільми в HD


igor911

kinaxem 
VIP


З нами з: 21.12.16
Востаннє: 23.08.19
Повідомлень: 418

2019-08-17 09:45  
Anonymous написано:
Подяка п.krigg070 за доріжку.

Яке джерело звуку?

Anonymous 







2019-08-17 09:50  
kinaxem написано:
Яке джерело звуку?
таке

kinaxem 
VIP


З нами з: 21.12.16
Востаннє: 23.08.19
Повідомлень: 418

2019-08-17 09:51  
Anonymous написано:
таке

То чому тоді не зачекали запису з Т2? Для чого так спішити? Чекали фільм роками і зараз всі релізи будуть зі спекторм 16 замість 18, файно...

Anonymous 







2019-08-17 09:53  
kinaxem, якщо буде якісніша доріжка - я заміню.
kinaxem 
VIP


З нами з: 21.12.16
Востаннє: 23.08.19
Повідомлень: 418

2019-08-17 09:55  
Anonymous написано:
якщо буде якісніша доріжка - я заміню.

Дякую!

olimpian1 
Поважний учасник


З нами з: 19.10.13
Востаннє: 22.08.19
Повідомлень: 180

2019-08-17 10:49  
Трейлер справив враження - треба дивитись)
olyx 
Відео Гуртом - підтримка та поширення
Відео Гуртом - підтримка та поширення


З нами з: 26.01.10
Востаннє: 22.08.19
Повідомлень: 249

2019-08-17 11:56  
А щось якісніше варто очікувати в плані відео?
Nikko033 
VIP


З нами з: 31.12.12
Востаннє: 22.08.19
Повідомлень: 549

2019-08-19 15:47  
непоганий фільм, але не більше 8/10
waldi-hurtom 
VIP


З нами з: 07.10.12
Востаннє: 21.08.19
Повідомлень: 994

2019-08-21 21:23  
Спочатку здалося - на 10 балів. А тоді по дрібничках мультики комп'ютерні, сосна палає до гори а знизу зелена травичка і жодної пожежі, ведмеді вогняні, стосункі пласкі. Коротше, чергова ода Америці. 7 з 10. Чисто з поваги до мужиків.
Rocchi 
Новенький


З нами з: 17.04.12
Востаннє: 22.08.19
Повідомлень: 8

2019-08-22 11:57  
опа, дякую!
Ваш часовий пояс: GMT + 2 Години

Нова тема   Відповісти