Доміно / Domino (2019) 1080p H.265 Ukr/Eng | Sub Eng

Нові коментарі

Нова тема   Відповісти
Автор Повідомлення
Anonymous 







2019-08-12 12:40  
Доміно / Domino (2019) 1080p H.265 Ukr/Eng | Sub Eng

Доміно / Domino (2019) 1080p H.265 Ukr/Eng | Sub Eng


Жанр: кримінал, трилер
Країна: Данія, Франція, Італія, Бельгія, Нідерланди
Кінокомпанія: Backup Media, Saban Films, Schønne Film
Режисер: Брайан Де Пальма
Актори: Ніколай Костер-Вальдау, Керіс Ван Хаутен, Гай Пірс, Сорен Меллінг, Ніколас Бро, Ерік Ебоні

Сюжет:
Офіцер поліції Копенгагена прагне помститися за смерть напарника від руки якогось Імрана. Полювання на вбивцю він веде в компанії з коханкою загиблого колеги. Однак обидва вони стають жертвами агента ЦРУ, який підставив Імрана.

Тривалість: 01:29:16
Якість:

Відео:
кодек: H.265 (HEVC)
розмір кадру: 1920 x 1008
бітрейт: 6864 кб/с
бітова глибина: 10 біт

Увага! Перед завантаженням переконайтесь, що ваш пристрій відтворення (та/або ПЗ) підтримує H.265 (HEVC)

Аудіо # 1:
мова: українська
переклад: професійний дубльований
кодек: AC-3 2.0
бітрейт: 192 кб/с
Інформація про дубляж
Переклад: Юлія Когут
Режисер дубляжу та звукорежисер перезапису: Олександр Єфімов
Ролі дублювали: Михайло Тишин, Ганна Чиж, Андрій Альохін, Катерина Брайковська, Дмитро Терещук, Ярослав Чорненький, Катерина Буцька, Дмитро Гаврилов, Юлія Перенчук, Кирило Нікітенко, Роман Чорний, Михайло Кришталь та інші.

Фільм дубльовано студією ААА-sound у 2019 році на замовлення компанії "Кіноманія".
Аудіо # 2:
мова: англійська
переклад: оригінал
кодек: 5.1
бітрейт: 1510 кб/с

Субтитри # 1: (SDH)
мова: англійська
тип: програмні (м'які)
формат: *.srt


Info
Код:
General
Unique ID                                : 136981585869921859610032191667339002758 (0x670DB19D3F4F1FC8D5B468F380A00386)
Complete name                            : Domino (2019) 1080p H.265 [UKR_ENG] [Hurtom].
Format                                   :
Format version                           : Version 4
File size                                : 5.34 GiB
Duration                                 : 1 h 29 min
Overall bit rate                         : 8 568 kb/s
Movie name                               : Доміно / Domino (2019)
Encoded date                             : UTC 2019-08-12 10:31:50
Writing application                      : v20.0.0 ('I Am The Sun') 64-bit
Writing library                          : libebml v1.3.5 + v1.4.8
Cover                                    : Yes
Attachments                              : cover.jpg

Video
ID                                       : 1
Format                                   : HEVC
Format/Info                              : High Efficiency Video Coding
Format profile                           : Main [email protected]@High
Codec ID                                 : V_MPEGH/ISO/HEVC
Duration                                 : 1 h 29 min
Bit rate                                 : 6 864 kb/s
Width                                    : 1 920 pixels
Height                                   : 1 008 pixels
Display aspect ratio                     : 1.905
Frame rate mode                          : Constant
Frame rate                               : 23.976 (24000/1001) FPS
Color space                              : YUV
Chroma subsampling                       : 4:2:0
Bit depth                                : 10 bits
Bits/(Pixel*Frame)                       : 0.148
Stream size                              : 4.28 GiB (80%)
Title                                    : Доміно / Domino (2019)
Language                                 : English
Default                                  : Yes
Forced                                   : No
Color range                              : Limited
Color primaries                          : BT.709
Transfer characteristics                 : BT.709
Matrix coefficients                      : BT.709

Audio #1
ID                                       : 2
Format                                   : AC-3
Format/Info                              : Audio Coding 3
Commercial name                          : Dolby Digital
Codec ID                                 : A_AC3
Duration                                 : 1 h 29 min
Bit rate mode                            : Constant
Bit rate                                 : 192 kb/s
Channel(s)                               : 2 channels
Channel layout                           : L R
Sampling rate                            : 48.0 kHz
Frame rate                               : 31.250 FPS (1536 SPF)
Bit depth                                : 16 bits
Compression mode                         : Lossy
Stream size                              : 123 MiB (2%)
Title                                    : / 2.0 Ch / 192 kbps / ПД / AAASound
Language                                 : Ukrainian
Service kind                             : Complete Main
Default                                  : Yes
Forced                                   : Yes

Audio #2
ID                                       : 3
Format                                   :
Format/Info                              : Digital Theater Systems
Codec ID                                 : A_DTS
Duration                                 : 1 h 29 min
Bit rate mode                            : Constant
Bit rate                                 : 1 509 kb/s
Channel(s)                               : 6 channels
Channel layout                           : C L R Ls Rs LFE
Sampling rate                            : 48.0 kHz
Frame rate                               : 93.750 FPS (512 SPF)
Bit depth                                : 24 bits
Compression mode                         : Lossy
Stream size                              : 964 MiB (18%)
Title                                    : / 5.1 Ch / 1509 kbps / Original
Language                                 : English
Default                                  : No
Forced                                   : No

Text
ID                                       : 4
Format                                   : UTF-8
Codec ID                                 : S_TEXT/UTF8
Codec ID/Info                            : UTF-8 Plain Text
Duration                                 : 1 h 22 min
Bit rate                                 : 42 b/s
Count of elements                        : 881
Stream size                              : 25.4 KiB (0%)
Title                                    : SDH
Language                                 : English
Default                                  : No
Forced                                   : No

Menu
00:00:00.000                             : :Chapter 01
00:06:06.532                             : :Chapter 02
00:10:32.757                             : :Chapter 03
00:18:10.506                             : :Chapter 04
00:21:27.995                             : :Chapter 05
00:29:09.539                             : :Chapter 06
00:33:12.448                             : :Chapter 07
00:38:08.202                             : :Chapter 08
00:44:59.321                             : :Chapter 09
00:49:25.379                             : :Chapter 10
00:55:43.381                             : :Chapter 11
01:00:34.255                             : :Chapter 12
01:04:15.184                             : :Chapter 13
01:11:16.522                             : :Chapter 14
01:17:45.035                             : :Chapter 15
01:22:09.132                             : :Chapter 16
Світлини




Джерело: &
Особиста оцінка: 0 - не дивився


 Трекер:    Зареєстрований   

Завантажити / скачати фільм українською



відео для новачків



 Зареєстрований:   2019-08-12 12:40
 Розмір:   5.34 GB 
 Оцінка фільму:   7.7/10 (Голосів: 6)
   
Інші релізи
   Доміно / Domino (2019) 1080p Ukr/Eng | Sub Eng staf777  8 / 0   7.1 GB   2019-08-22 11:32 
   Доміно / Domino (2019) Remux 1080p Ukr/Eng | Sub Eng kryk-v.ya.  8 / 1   18.96 GB   2019-08-13 09:50 
   Доміно / Domino (2019) 720p Ukr/Eng | Sub Eng 11FrYkT  13 / 0   4.1 GB   2019-08-12 11:04 
   Доміно / Domino (2019) AVC Ukr/Eng | Sub Eng 11FrYkT  29 / 3   1.79 GB   2019-08-12 09:29 
Ваш часовий пояс: GMT + 2 Години

Нова тема   Відповісти