Дуда та Дада / Duda and Dada (Сезон 1-2) (2014) 1080p

Нові коментарі

Нова тема   Відповісти
Останній раз роздавалося Bimerman (2021-04-23)
Автор Повідомлення
sergiyko.5 
Забанено
Забанено


З нами з: 25.02.16
Востаннє: 29.10.20
Повідомлень: 3648

2019-08-12 12:30  
Дуда та Дада / Duda and Dada (Сезон 1-2) (2014) 1080p

Дуда та Дада / Duda and Dada (Сезон 1-2) (2014) 1080p

Жанр: дитячий, пригоди
Країна: Південна Корея
Режисер: Фун Лі

Сюжет:
Дуда – маленьке кротеня. Дада – допитлива дівчинка. Разом вони досліджують світ навколо себе і розкривають таємниці Незвіданого Лісу. Дада багато подорожує на своєму універсальному мікроавтобусі по всьому світі. Дада мріє стати першим у світі кротом-дослідником та мандрівником.


Тривалість: 1 серія: 11:00 (цілком серій: 52 з 52)
Якість: 1080p

Відео: кодек: розмір кадру: 1920 х 1080 бітрейт: ~ 4 000 кб/с
Аудіо: мова: українська переклад: багатоголосий закадровий кодек: 2.0 бітрейт: 192 кб/с

Додаткова інформація: присутні написи назви мультика та серій російським наріччям.
Перелік серій:

Сезон 1
01 Привіт Пінкарику
02 Удаваний хворий
03 Зірочко, зачекай мене
04 Це секрет
05 Не можу заснути
06 Янгольська посмішка
07 Катання на санчатах
08 Дивний слід
09 Поштар на день
10 За кермом Пінкарика
11 Велитень Дуда
12 Складно бути мамою
13 Забагато галасу
14 Репетиція
15 Новий приятель
16 Загадай бажання
17 Гикавка
18 Хочу стати моделлю
19 Герой Незвіданого лісу
20 Фея прибирання
21 Детектив Дуда
22 Помічники Санти
23 Дуда-фотограф
24 Не бійся помилятися
25 Ходімо в похід
26 Зимові скарби

Сезон 2
01 Гігантський фрукт
02 Кращій з найкращіх
03 Майстер-обмін
04 Смачна карта
05 Новий друг
06 Щоденник пригод
07 Скарб із пустелі
08 Учитель дня
09 Справа про зниклий акваріум
10 Щасливий медальйон
11 Лісовий монстр
12 Складнощі переїзду
13 Морські скарби
14 Великі перегони
15 Пінкарик у біді
16 Бувай, Пінкарику
17 Давай мінятися
18 Крижане цуценятко
19 Мішечок з насінням
20 Уявна пригоди
21 Битва кухарів
22 Відгадай загадку
23 Чуку проти Шкота
24 Найкраща нагорода
25 Посвідчення водія
26 Де живе сонечко
Про файл:
General
Unique ID : 211509416883839111419456622602354253491 (0x9F1F3B610D53BAE98C484B45C8C95EB3)
Complete name : E:\content\films\Duda and Dada 1080p \Duda and Dada S01 1080p \S01E01.Привіт Пінкарику.1080p..
Format :
Format version : Version 4
File size : 324 MiB
Duration : 10 min 48 s
Overall bit rate : 4 191 kb/s
Movie name : Duda and Dada S01 1080p by sergiyko
Encoded date : UTC 2019-08-12 08:23:29
Writing application : v35.0.0 ('All The Love In The World') 64-bit
Writing library : libebml v1.3.9 + v1.5.2

Video
ID : 1
Format : AVC
Format/Info : Advanced Video Codec
Format profile : [email protected]
Format settings : CABAC / 3 Ref Frames
Format settings, CABAC : Yes
Format settings, Reference : 3 frames
Codec ID : V_MPEG4/ISO/AVC
Duration : 10 min 48 s
Bit rate : 3 999 kb/s
Width : 1 920 pixels
Height : 1 080 pixels
Display aspect ratio : 16:9
Frame rate mode : Constant
Frame rate : 25.000 FPS
Color space : YUV
Chroma subsampling : 4:2:0
Bit depth : 8 bits
Scan type : Progressive
Bits/(Pixel*Frame) : 0.077
Stream size : 309 MiB (95%)
Title : S01E01.Привіт Пінкарику
Language : English
Default : Yes
Forced : No

Audio
ID : 2
Format : LC
Format/Info : Advanced Audio Codec Low Complexity
Codec ID : A_AAC-2
Duration : 10 min 48 s
Bit rate : 192 kb/s
Channel(s) : 2 channels
Channel layout : L R
Sampling rate : 44.1 kHz
Frame rate : 43.066 FPS (1024 SPF)
Compression mode : Lossy
Stream size : 14.6 MiB (5%)
Language : Ukrainian
Default : Yes
Forced : No
Скріншоти:


Бронзовий реліз (на рейтинг впливає 75% завантаженого)
 Трекер:    Зареєстрований   

Завантажити / скачати мультфільм українською



відео для новачків



 Зареєстрований:   2019-08-12 12:30
 Розмір:   17.24 GB 
 Оцінка мультсеріалу:   8/10 (Голосів: 5)
   
Dark Invader 
Модератор відео


З нами з: 06.01.11
Востаннє: 23.04.21
Повідомлень: 3182

2019-08-12 15:46  
Додайте джерело озвучення та посилання на IMDb.
sergiyko.5 
Забанено
Забанено


З нами з: 25.02.16
Востаннє: 29.10.20
Повідомлень: 3648

2019-08-12 15:58  
Dark Invader
Джерело озвучення невідоме.
На IMDb мульт не зареєстровано.

Electroz 
Відео Гуртом - підтримка та поширення
Відео Гуртом - підтримка та поширення


З нами з: 18.09.14
Востаннє: 23.04.21
Повідомлень: 4448

2019-08-12 16:03  
sergiyko.5 написано:
Джерело озвучення невідоме.

Звідки ви взяли озвучення?

aaa4523 
VIP


З нами з: 26.07.13
Востаннє: 22.04.21
Повідомлень: 349

2019-08-12 17:42  
Цитата:
Джерело озвучення невідоме.

Голоси однакові що й в UA Першого, його недавно крутили там та й досі показують, тому напевно це Перший. В Тачки проти / Funny Little Cars також.

sergiyko.5 
Забанено
Забанено


З нами з: 25.02.16
Востаннє: 29.10.20
Повідомлень: 3648

2019-08-12 17:46  
aaa4523
Значить компанія КІТ.

aaa4523 
VIP


З нами з: 26.07.13
Востаннє: 22.04.21
Повідомлень: 349

2019-08-12 18:04  
Цитата:
Значить компанія КІТ

Напевно.

Ps: Ще трохи інформації.
В UA Першого назва та серії перекладені українською, тири англійською мовою.

Ваш часовий пояс: GMT + 2 Години

Нова тема   Відповісти