Так, можливо (Так, ні, не знаю) / Definitely, Maybe (2008) 1080p [Open Matte] 2xUkr/Eng | Sub Eng

Нові коментарі

Нова тема   Відповісти
Автор Повідомлення
Anonymous 







2019-08-12 10:45  
Так, можливо / Так, ні, не знаю / Definitely, Maybe (2008) 1080p [Open Matte] 2xUkr/Eng | Sub Eng

Так, можливо (Так, ні, не знаю) / Definitely, Maybe (2008) 1080p [Open Matte] 2xUkr/Eng | Sub Eng
Український кінотеатральний та оригінальний постери:

Так, можливо (Так, ні, не знаю) / Definitely, Maybe (2008) 1080p [Open Matte] 2xUkr/Eng | Sub Eng



Жанр: комедія, драма, романтичний, мелодрама
Країна: Велика Британія, США, Франція



Кіностудія / кінокомпанія: Universal Pictures
Режисер: Адам Брукс / Adam Brooks
Актори: Раян Рейнольдс / Ryan Reynolds, Ен Нгуйєн / An Nguyen, Сакіна Джеффрі / Sakina Jaffrey, Боб Вілтфонг / Bob Wiltfong, Айла Фішер / Isla Fisher, Ебіґейл Бреслін / Abigail Breslin, Рейчел Вайс / Rachel Weisz, Елізабет Бенкс / Elizabeth Banks, Кевін Кляйн / Kevin Kline, Нестор Серрано / Nestor Serrano, Райдер Чейсін / Ryder Chasin, Фіона Лейн / Fiona Lane та інші.

Сюжет:
Як пояснити дитині, чому її батьки розлучаються? Для маленької дівчинки мама і тато завжди люблять один одного, і інакше бути просто не може.
Головний герой картини - Вілл - вирішує показати доньці свою історію. Він розповідає їй про три романи, які були в його житті. Один з них - з її мамою. Два інших - не привели ні до чого серйозного. Дівчинка бачить всю картину очима її тата. Вона відчуває (за нього), як він і переживає разом з ним усі події. Зрештою, навіть дитині стає зрозуміло, що весілля - не завжди щасливий кінець, і що почуття можуть залишитися десь далеко з іншою людиною.
Офіційний трейлер:


Рейтинг MPAA: PG-13 - дітям до 13 років перегляд не бажаний
Вікова категорія: 12+

Тривалість: 01:51:51
Якість: 1080p [Open Matte] [Amazon STARZ - періодично з'являється логотип]
Відео:
кодек:
розмір кадру: 1920 х 1080
бітрейт: 10 Мб/с
Open Matte версія має значно більше наповнення кадру, порівняння з блуреєм:

Блурей<--------------->Цей Open Matte




http://www.framecompare.com/image-compare/screenshotcomparison/JB02MNNU
Аудіо # -1:
Український кінотеатральний дубляж втрачено, бо після кінопрокату його не додали ні на ліцензійні носії, ні на онлайн-платформи


Аудіо # 1:
мова: українська
переклад: багатоголосий закадровий
кодек: 2.0 (стерео)
бітрейт: 192 кб/с

Аудіо # 2: ,
мова: українська
переклад: багатоголосий закадровий
ролі озвучили: Олесь Гімбаржевський, Анатолій Зіновенко, Юлія Перенчук і Ніна Касторф
кодек: 2.0
бітрейт: 192 кб/с

Аудіо # 3:
мова: англійська
переклад: оригінал
кодек: 5.1
бітрейт: 640 кб/с

Субтитри # 1-2:
мова: англійська (повні, SDH)
тип: пререндерні
формат: pgs
Info
Код:

Complete name               : Definitely, Maybe [Open Matte] (2008) [2xUkr,Eng sub.Eng] 1080p [Hurtom].
Format                      :
Format version              : Version 4
File size                   : 8.37 GiB
Duration                    : 1 h 51 min
Overall bit rate            : 10.7 Mb/s
Movie name                  : Так, можливо / Так, ні, не знаю / Definitely, Maybe (2008) [2xUkr,Eng sub.Eng] 1080p [Hurtom]
Encoded date                : UTC 2019-08-13 15:50:57
Writing application         : v36.0.0 ('Is That Jazz?') 64-bit
Writing library             : libebml v1.3.9 + v1.5.2
Cover                       : Yes
Attachments                 : cover.jpg

Video
ID                          : 1
Format                      : AVC
Format/Info                 : Advanced Video Codec
Format profile              : [email protected]
Format settings             : CABAC / 4 Ref Frames
Format settings, CABAC      : Yes
Format settings, Reference  : 4 frames
Codec ID                    : V_MPEG4/ISO/AVC
Duration                    : 1 h 51 min
Bit rate mode               : Constant
Bit rate                    : 10 000 kb/s
Width                       : 1 920 pixels
Height                      : 1 080 pixels
Display aspect ratio        : 16:9
Frame rate mode             : Constant
Frame rate                  : 23.976 (24000/1001) FPS
Color space                 : YUV
Chroma subsampling          : 4:2:0
Bit depth                   : 8 bits
Scan type                   : Progressive
Bits/(Pixel*Frame)          : 0.201
Stream size                 : 7.49 GiB (90%)
Title                       : Так, можливо / Так, ні, не знаю / Definitely, Maybe (2008) 1080p [Open Matte, Amazon STARZ]
Language                    : English
Default                     : Yes
Forced                      : No
Color range                 : Limited
Color primaries             : BT.709
Transfer characteristics    : BT.709
Matrix coefficients         : BT.709

Audio #1
ID                          : 2
Format                      : AC-3
Format/Info                 : Audio Coding 3
Commercial name             : Dolby Digital
Codec ID                    : A_AC3
Duration                    : 1 h 51 min
Bit rate mode               : Constant
Bit rate                    : 192 kb/s
Channel(s)                  : 2 channels
Channel layout              : L R
Sampling rate               : 48.0 kHz
Frame rate                  : 31.250 FPS (1536 SPF)
Bit depth                   : 16 bits
Compression mode            : Lossy
Stream size                 : 154 MiB (2%)
Title                       : MVO [Volia CINE+] 2.0 [stereo] 192 Kbps
Language                    : Ukrainian
Service kind                : Complete Main
Default                     : Yes
Forced                      : No

Audio #2
ID                          : 3
Format                      : AC-3
Format/Info                 : Audio Coding 3
Commercial name             : Dolby Digital
Codec ID                    : A_AC3
Duration                    : 1 h 51 min
Bit rate mode               : Constant
Bit rate                    : 192 kb/s
Channel(s)                  : 2 channels
Channel layout              : L R
Sampling rate               : 48.0 kHz
Frame rate                  : 31.250 FPS (1536 SPF)
Bit depth                   : 16 bits
Compression mode            : Lossy
Stream size                 : 154 MiB (2%)
Title                       : MVO [NLO, TRK Ukraina], 2.0 192 Kbps
Language                    : Ukrainian
Service kind                : Complete Main
Default                     : No
Forced                      : No

Audio #3
ID                          : 4
Format                      : AC-3
Format/Info                 : Audio Coding 3
Commercial name             : Dolby Digital
Codec ID                    : A_AC3
Duration                    : 1 h 51 min
Bit rate mode               : Constant
Bit rate                    : 640 kb/s
Channel(s)                  : 6 channels
Channel layout              : L R C LFE Ls Rs
Sampling rate               : 48.0 kHz
Frame rate                  : 31.250 FPS (1536 SPF)
Bit depth                   : 16 bits
Compression mode            : Lossy
Stream size                 : 512 MiB (6%)
Title                       : Original, 5.1 640 Kbps
Language                    : English
Service kind                : Complete Main
Default                     : No
Forced                      : No

Text #1
ID                          : 5
Format                      : PGS
Codec ID                    : S_HDMV/PGS
Codec ID/Info               : Picture based subtitle format used on BDs/HD-DVDs
Duration                    : 1 h 46 min
Bit rate                    : 38.8 kb/s
Count of elements           : 3592
Stream size                 : 29.5 MiB (0%)
Title                       : Eng SDH
Language                    : English
Default                     : No
Forced                      : No

Text #2
ID                          : 6
Format                      : PGS
Codec ID                    : S_HDMV/PGS
Codec ID/Info               : Picture based subtitle format used on BDs/HD-DVDs
Duration                    : 1 h 46 min
Bit rate                    : 54.0 kb/s
Count of elements           : 3599
Stream size                 : 41.1 MiB (0%)
Title                       : Eng Full
Language                    : English
Default                     : No
Forced                      : No



Джерело: &
Над українськими доріжками працювали: Sando7, patriot2305. Постер: Gelios.


 Трекер:    Зареєстрований   

Завантажити / скачати фільм українською



відео для новачків



 Зареєстрований:   2019-08-13 19:30
 Розмір:   8.37 GB 
 Оцінка фільму:   9.9/10 (Голосів: 10)
 ЗАЛИШАЙТЕСЬ ЯКОМОГА ДОВШЕ НА РОЗДАЧІ! ЗАВАНТАЖИВ САМ - ДАЙ ЗАВАНТАЖИТИ ІНШИМ!
   
Ваш часовий пояс: GMT + 2 Години

Нова тема   Відповісти