Чиста правда / All Is True (2018) 1080p Eng | Sub Ukr/Eng

Нові коментарі

Нова тема   Відповісти
Останній раз роздавалося kostjazou (2020-11-30)
Автор Повідомлення
Anonymous 







2019-08-11 23:08  
Чиста правда / All Is True (2018) 1080p Eng | Sub Ukr/Eng

Чиста правда / All Is True (2018) 1080p Eng | Sub Ukr/Eng


Жанр: драма, історичний
Країна: Великобританія
Кінокомпанія: TKBC
Режисер: Кеннет Брана
Актори: Кеннет Брана, Джуді Денч, Ієн Маккеллен, Кетрін Вайлдер, Лідія Вілсон та інші

Сюжет:
Фільм розповідає про останні роки життя англійського поета і драматурга Вільяма Шекспіра.

Тривалість: 01:40:54
Якість:

Відео:
кодек:
розмір кадру: 1920 x 796
бітрейт: 4 549 кб/с

Аудіо # 1:
мова: англійська
переклад: оригінал
кодек: AC-3 5.1
бітрейт: 384 кб/с

Субтитри # 1: (Full)
мова: українська
тип: програмні (м'які)
формат: *.srt

Субтитри # 2: (Full)
мова: англійська
тип: програмні (м'які)
формат: *.srt


Info
Код:
General
Unique ID                                : 157446232795375889446908422551563336337 (0x76730A9BA0259F7FBC1750606CBAFA91)
Complete name                            : All Is True (2018) 1080p [ENG] [Hurtom].
Format                                   :
Format version                           : Version 4
File size                                : 3.48 GiB
Duration                                 : 1 h 40 min
Overall bit rate                         : 4 935 kb/s
Movie name                               : Чиста правда / All Is True (2018)
Encoded date                             : UTC 2019-08-12 07:16:33
Writing application                      : v20.0.0 ('I Am The Sun') 64-bit
Writing library                          : libebml v1.3.5 + v1.4.8
Cover                                    : Yes
Attachments                              : Cover.jpg

Video
ID                                       : 1
Format                                   : AVC
Format/Info                              : Advanced Video Codec
Format profile                           : [email protected]
Format settings                          : CABAC / 5 Ref Frames
Format settings, CABAC                   : Yes
Format settings, Reference frames        : 5 frames
Codec ID                                 : V_MPEG4/ISO/AVC
Duration                                 : 1 h 40 min
Bit rate                                 : 4 549 kb/s
Width                                    : 1 920 pixels
Height                                   : 796 pixels
Display aspect ratio                     : 2.40:1
Frame rate mode                          : Constant
Frame rate                               : 23.976 FPS
Color space                              : YUV
Chroma subsampling                       : 4:2:0
Bit depth                                : 8 bits
Scan type                                : Progressive
Bits/(Pixel*Frame)                       : 0.124
Stream size                              : 3.21 GiB (92%)
Title                                    : Чиста правда / All Is True (2018)
Language                                 : English
Default                                  : Yes
Forced                                   : No
Color range                              : Limited
Color primaries                          : BT.709
Transfer characteristics                 : BT.709
Matrix coefficients                      : BT.709

Audio
ID                                       : 2
Format                                   : AC-3
Format/Info                              : Audio Coding 3
Commercial name                          : Dolby Digital
Codec ID                                 : A_AC3
Duration                                 : 1 h 40 min
Bit rate mode                            : Constant
Bit rate                                 : 384 kb/s
Channel(s)                               : 6 channels
Channel layout                           : L R C LFE Ls Rs
Sampling rate                            : 48.0 kHz
Frame rate                               : 31.250 FPS (1536 SPF)
Bit depth                                : 16 bits
Compression mode                         : Lossy
Stream size                              : 277 MiB (8%)
Title                                    : / 5.1 Ch / 384 kbps / Original
Language                                 : English
Service kind                             : Complete Main
Default                                  : No
Forced                                   : No

Text #1
ID                                       : 3
Format                                   : UTF-8
Codec ID                                 : S_TEXT/UTF8
Codec ID/Info                            : UTF-8 Plain Text
Duration                                 : 1 h 40 min
Bit rate                                 : 84 b/s
Count of elements                        : 1177
Stream size                              : 61.9 KiB (0%)
Title                                    : Full
Language                                 : Ukrainian
Default                                  : No
Forced                                   : No

Text #2
ID                                       : 4
Format                                   : UTF-8
Codec ID                                 : S_TEXT/UTF8
Codec ID/Info                            : UTF-8 Plain Text
Duration                                 : 1 h 34 min
Bit rate                                 : 57 b/s
Count of elements                        : 1158
Stream size                              : 39.7 KiB (0%)
Title                                    : Full
Language                                 : English
Default                                  : No
Forced                                   : No

Menu
00:00:00.000                             : en:1
00:05:54.938                             : en:2
00:12:25.161                             : en:3
00:18:54.133                             : en:4
00:24:21.460                             : en:5
00:30:46.720                             : en:6
00:35:48.271                             : en:7
00:38:06.325                             : en:8
00:50:11.674                             : en:9
00:59:54.840                             : en:10
01:02:07.888                             : en:11
01:06:19.598                             : en:12
01:13:43.082                             : en:13
01:18:55.017                             : en:14
01:28:06.693                             : en:15
01:31:35.193                             : en:16
Світлини




Джерело: & &
Особиста оцінка: 0 - не дивився


 Трекер:    Зареєстрований   

Завантажити / скачати фільм українською



відео для новачків



 Зареєстрований:   2019-08-12 09:36
 Розмір:   3.48 GB 
 Оцінка фільму:   10/10 (Голосів: 3)
   
bot 
робот


З нами з: 30.09.07
Востаннє: 26.05.05
Повідомлень: 26481

2019-08-11 23:08  
Тему перенесено з Фільми в HD до форуму Анонси релізів


-Star-Lord-

igor911 
Модератор відео


З нами з: 18.01.08
Востаннє: 05.12.20
Повідомлень: 15098

2019-08-12 08:33  
офіційний постер:
Код:
[url=http://posters.hurtom.com/albums/movies/all-is-true-2018-itns.jpg][img]http://posters.hurtom.com/cache/movies/all-is-true-2018-itns_550.jpg[/img][/url]

Anonymous 







2019-08-12 09:10  
igor911
Дякую!

bot 
робот


З нами з: 30.09.07
Востаннє: 26.05.05
Повідомлень: 26481

2019-08-12 09:36  
Тему перенесено з Анонси релізів до форуму Фільми


-Star-Lord-

hetzendorf 
Попереджень: 2
Попереджень: 2 


З нами з: 23.07.15
Востаннє: 05.12.20
Повідомлень: 2943

2019-08-12 12:12  
Цитата:
останні роки життя англійського «поета і драматурга» Вільяма Шекспіра

Чергова брехня на підтримку давно набридлого нафталінового міту! Саме тому лицемірна назва фільму — чисте блюзнірство!

Ваш часовий пояс: GMT + 2 Години

Нова тема   Відповісти