Сім'я / Family (2018) 1080p Eng | Sub Ukr/Eng

Нові коментарі

Нова тема   Відповісти
Останній раз роздавалося rakab (2020-12-02)
Автор Повідомлення
Anonymous 







2019-08-11 22:57  
Сім'я / Family (2018) 1080p Eng | Sub Ukr/Eng

Сім'я / Family (2018) 1080p Eng | Sub Ukr/Eng


Жанр: комедія
Країна: США
Кінокомпанія: Naegle Ink, Stage 6 Films
Режисер: Лаура Штейнель
Актори: Тейлор Шиллінг, Брайан Тайрі Генрі, Брайн Вейл, Еллісон Толман, Фабріціо Гвідо, Кейт МакКіннон, Пітер Хортон

Сюжет:
Емоційно незріла тітка намагається налагодити зв'язок зі своєю 13-річною племінницею, яка хоче лише одного: втекти з дому і стати джаггало.

Тривалість: 01:26:01
Якість:

Відео:
кодек:
розмір кадру: 1916 x 794
бітрейт: 4 582 кб/с

Аудіо # 1:
мова: англійська
переклад: оригінал
кодек: AC-3 5.1
бітрейт: 384 кб/с

Субтитри # 1: (Full)
мова: українська
тип: програмні (м'які)
формат: *.srt

Субтитри # 2: (Full)
мова: англійська
тип: програмні (м'які)
формат: *.srt


Info
Код:
General
Unique ID                                : 180008293682440050605757792003780859810 (0x876C561806A210155FE8C662199157A2)
Complete name                            : Family (2018) 1080p [ENG] [Hurtom].
Format                                   :
Format version                           : Version 4
File size                                : 2.99 GiB
Duration                                 : 1 h 26 min
Overall bit rate                         : 4 968 kb/s
Movie name                               : Сім'я / Family (2018)
Encoded date                             : UTC 2019-08-12 07:19:33
Writing application                      : v20.0.0 ('I Am The Sun') 64-bit
Writing library                          : libebml v1.3.5 + v1.4.8
Cover                                    : Yes
Attachments                              : Cover.jpg

Video
ID                                       : 1
Format                                   : AVC
Format/Info                              : Advanced Video Codec
Format profile                           : [email protected]
Format settings                          : CABAC / 5 Ref Frames
Format settings, CABAC                   : Yes
Format settings, Reference frames        : 5 frames
Codec ID                                 : V_MPEG4/ISO/AVC
Duration                                 : 1 h 26 min
Bit rate                                 : 4 582 kb/s
Width                                    : 1 916 pixels
Height                                   : 794 pixels
Display aspect ratio                     : 2.40:1
Frame rate mode                          : Constant
Frame rate                               : 23.976 (23976/1000) FPS
Color space                              : YUV
Chroma subsampling                       : 4:2:0
Bit depth                                : 8 bits
Scan type                                : Progressive
Bits/(Pixel*Frame)                       : 0.126
Stream size                              : 2.75 GiB (92%)
Title                                    : Сім'я / Family (2018)
Language                                 : English
Default                                  : Yes
Forced                                   : No
Color range                              : Limited
Color primaries                          : BT.709
Transfer characteristics                 : BT.709
Matrix coefficients                      : BT.709

Audio
ID                                       : 2
Format                                   : AC-3
Format/Info                              : Audio Coding 3
Commercial name                          : Dolby Digital
Codec ID                                 : A_AC3
Duration                                 : 1 h 26 min
Bit rate mode                            : Constant
Bit rate                                 : 384 kb/s
Channel(s)                               : 6 channels
Channel layout                           : L R C LFE Ls Rs
Sampling rate                            : 48.0 kHz
Frame rate                               : 31.250 FPS (1536 SPF)
Bit depth                                : 16 bits
Compression mode                         : Lossy
Delay relative to video                  : -42 ms
Stream size                              : 236 MiB (8%)
Title                                    : / 5.1 Ch / 384 kbps / Original
Language                                 : English
Service kind                             : Complete Main
Default                                  : No
Forced                                   : No

Text #1
ID                                       : 3
Format                                   : UTF-8
Codec ID                                 : S_TEXT/UTF8
Codec ID/Info                            : UTF-8 Plain Text
Duration                                 : 1 h 24 min
Bit rate                                 : 111 b/s
Count of elements                        : 1372
Stream size                              : 69.5 KiB (0%)
Title                                    : Full
Language                                 : Ukrainian
Default                                  : No
Forced                                   : No

Text #2
ID                                       : 4
Format                                   : UTF-8
Codec ID                                 : S_TEXT/UTF8
Codec ID/Info                            : UTF-8 Plain Text
Duration                                 : 1 h 25 min
Bit rate                                 : 119 b/s
Count of elements                        : 1670
Stream size                              : 74.3 KiB (0%)
Title                                    : Full
Language                                 : English
Default                                  : No
Forced                                   : No

Menu
00:00:00.000                             : en:1
00:05:57.857                             : en:2
00:11:20.261                             : en:3
00:14:16.270                             : en:4
00:20:25.097                             : en:5
00:25:06.586                             : en:6
00:29:22.091                             : en:7
00:34:15.049                             : en:8
00:38:20.418                             : en:9
00:41:50.628                             : en:10
00:45:08.908                             : en:11
00:49:47.895                             : en:12
00:54:50.364                             : en:13
00:58:34.963                             : en:14
01:01:58.707                             : en:15
01:05:36.716                             : en:16
01:08:36.687                             : en:17
01:13:51.292                             : en:18
01:17:30.678                             : en:19
01:20:24.518                             : en:20
Світлини




Джерело: &
Особиста оцінка: 0 - не дивився


 Трекер:    Зареєстрований   

Завантажити / скачати фільм українською



відео для новачків



 Зареєстрований:   2019-08-12 09:32
 Розмір:   2.99 GB 
 Оцінка фільму:   10/10 (Голосів: 3)
   
bot 
робот


З нами з: 30.09.07
Востаннє: 26.05.05
Повідомлень: 26431

2019-08-11 22:57  
Тему перенесено з Фільми в HD до форуму Анонси релізів


-Star-Lord-

tiaro 
Частий відвідувач


З нами з: 01.11.15
Востаннє: 23.11.20
Повідомлень: 27

2019-08-12 01:08  
ким хоче стати племінниця?
laszlozp 
Забанено
Забанено


З нами з: 28.07.19
Востаннє: 13.11.19
Повідомлень: 492

2019-08-12 06:39  
tiaro написано:
джаггало

вікі каже, що це фанати гурту Insane Clown Posse
https://en.wikipedia.org/wiki/Juggalo

igor911 
Модератор відео


З нами з: 18.01.08
Востаннє: 02.12.20
Повідомлень: 15084

2019-08-12 08:33  
укр.постер:
Код:
[url=http://posters.hurtom.com/albums/movies/family-2018-itns.jpg][img]http://posters.hurtom.com/cache/movies/family-2018-itns_550.jpg[/img][/url]

bot 
робот


З нами з: 30.09.07
Востаннє: 26.05.05
Повідомлень: 26431

2019-08-12 09:32  
Тему перенесено з Анонси релізів до форуму Фільми


-Star-Lord-

Ваш часовий пояс: GMT + 2 Години

Нова тема   Відповісти