Покемон детектив Пікачу / Pokémon Detective Pikachu (2019)

Нові коментарі

Нова тема   Відповісти
Автор Повідомлення
Anonymous 







2019-08-11 17:36  
Покемон детектив Пікачу / Pokémon Detective Pikachu (2019)

Альтернативні українські постери:


автор - mrgalser

Жанр: детектив, пригодницький, сімейний, фантастика, фентезі
Країна: США, Японія



Кінокомпанія: Warner Bros., Legendary Entertainment, The Pokemon Company
Режисер: Роб Леттерман / Rob Letterman
Актори: Раян Рейнольдс / Ryan Reynolds, Джастіс Сміт / Justice Smith, Кетрін Ньютон / Kathryn Newton, Білл Найї / Bill Nighy, Кен Ватанабе / Ken Watanabe, Кріс Гір / Chris Geere, С'юкі Вотергаус / Suki Waterhouse та інші.

Сюжет:
Коли його батько-детектив зникає за загадкових обставин, 21-річний Тім Гудмен починає своє розслідування. Його партнером в цій заплутаній справі стає детектив Пікачу: смішний, мудрий і милий покемон-суперсищик, який дивує сам себе. З'ясувавши, що Тім є єдиною людиною, яка його розуміє, Пікачу допомагає йому шукати зачіпки на неонових вулицях сучасного мегаполісу Райм-Сіті, де люди і покемони живуть пліч-о-пліч.
Офіційні українські трейлери:




Рейтинг MPAA: PG - рекомендується присутність батьків
Вікова категорія: 6+

Тривалість: 01:44:29
Якість:

Відео:
кодек:
розмір кадру: 720x 304
бітрейт: 1615 кб/с

Аудіо:
мова: українська
переклад: професійний дубльований | студія Postmodern
кодек: 5.1
бітрейт: 384 кб/с
Інформація про дубляж
Переклад: Олег Колесніков
Режисер дубляжу: Катерина Брайковська
Звукорежисер: Андрій Жолуденко
Ролі дублювали: Дмитро Гаврилов, Юрій Сосков, Кристина Вижу, Юрій Висоцький, Павло Скороходько, Олег Стальчук, Дмитро Терещук, Наталя Романько-Кисельова, Дмитро Завадський та інші.

Фільм дубльовано компанією Postmodern.

Субтитри:
мова: українська (форсовані)
тип: програмні (м'які)
формат: *.srt
Info
Код:
General
Complete name               : Pokemon Detective Pikachu (2019) [Ukr] [Hurtom].avi
Format                      : AVI
Format/Info                 : Audio Video Interleave
File size                   : 1.47 GiB
Duration                    : 1 h 44 min
Overall bit rate            : 2 008 kb/s
Movie name                  : Покемон детектив Пікачу / Pokemon Detective Pikachu (2019) [Ukr] [Hurtom]
Writing application         : VirtualDubModUkr 1.5.10.2 (build 2542/release)
Writing library             : VirtualDubMod build 2542/release

Video
ID                          : 0
Format                      : MPEG-4 Visual
Format profile              : Advanced [email protected]
Format settings             : BVOP1 / Custom Matrix
Format settings, BVOP       : 1
Format settings, QPel       : No
Format settings, GMC        : No warppoints
Format settings, Matrix     : Custom
Codec ID                    :
Codec ID/Hint               :
Duration                    : 1 h 44 min
Bit rate                    : 1 615 kb/s
Width                       : 720 pixels
Height                      : 304 pixels
Display aspect ratio        : 2.35:1
Frame rate                  : 23.976 (24000/1001) FPS
Color space                 : YUV
Chroma subsampling          : 4:2:0
Bit depth                   : 8 bits
Scan type                   : Progressive
Compression mode            : Lossy
Bits/(Pixel*Frame)          : 0.308
Stream size                 : 1.18 GiB (80%)
Writing library             : 73

Audio
ID                          : 1
Format                      : AC-3
Format/Info                 : Audio Coding 3
Commercial name             : Dolby Digital
Codec ID                    : 2000
Duration                    : 1 h 44 min
Bit rate mode               : Constant
Bit rate                    : 384 kb/s
Channel(s)                  : 6 channels
Channel layout              : L R C LFE Ls Rs
Sampling rate               : 48.0 kHz
Frame rate                  : 31.250 FPS (1536 SPF)
Bit depth                   : 16 bits
Compression mode            : Lossy
Stream size                 : 287 MiB (19%)
Alignment                   : Split across interleaves
Interleave, duration        : 42  ms (1.00 video frame)
Interleave, preload duratio : 500  ms
Title                       : Ukr Dub [Postmodern, iTunes]
Service kind                : Complete Main
Скріншоти


Джерело: &


 Трекер:    Зареєстрований   

Завантажити / скачати фільм українською



відео для новачків



 Зареєстрований:   2019-08-17 11:22
 Розмір:   1.47 GB 
 Оцінка фільму:   9/10 (Голосів: 23)
 ЗАЛИШАЙТЕСЬ ЯКОМОГА ДОВШЕ НА РОЗДАЧІ! ЗАВАНТАЖИВ САМ - ДАЙ ЗАВАНТАЖИТИ ІНШИМ!
   
Judgment Day 
Частий відвідувач


З нами з: 05.08.18
Востаннє: 15.09.19
Повідомлень: 29

2019-08-12 15:30  
Не дивився фільм. Вартий уваги?
Anonymous 







2019-08-12 15:46  
Judgment Day написано:
Вартий уваги?

Чудово підходить для сімейного перегляду з дітьми. Додав трейлери в опис.

bot 
робот


З нами з: 30.09.07
Востаннє: 26.05.05
Повідомлень: 22033

2019-08-17 11:22  
Тему перенесено з Анонси релізів до форуму Фільми


igor911

madagaskar1 
VIP


З нами з: 08.05.14
Востаннє: 15.09.19
Повідомлень: 760

2019-08-20 10:00  
маю субтири форс. трішки повніші додані пункти 7,8,9 та 16

1
00:01:06,025 --> 00:01:11,947
ПОКЕМОН: ДЕТЕКТИВ ПІКАЧУ

2
00:07:12,973 --> 00:07:15,600
У АВАРІЇ ЗАГИНУВ ДЕТЕКТИВ

3
00:08:39,601 --> 00:08:44,021
РОДЖЕР КЛІФФОРД ПРЕЗИДЕНТ
КЛІФФОРД ІНДАСТРІЗ

4
00:10:28,753 --> 00:10:30,589
ЛЕЙТЕНАНТ Х. Йосіда

5
00:13:50,245 --> 00:13:52,245
Г. ГУДМАН

6
00:16:22,897 --> 00:16:27,067
В Райм-сіті знайдені рештки
древнього Мью.

7
00:17:20,290 --> 00:17:22,099
Тіму Гудману

8
00:17:22,125 --> 00:17:24,251
Вітаю з 21-им ДНЕМ НАРОЖДЕННЯ

9
00:17:26,379 --> 00:17:28,956
БІЛЕТ ІЗ ЛІВЕНТАУНА ДО РАЙМ-СІТІ

10
00:18:12,216 --> 00:18:14,426
24 ЧЕМПІОНАТ ПО СІННО

11
00:23:40,795 --> 00:23:43,297
У РАЗІ ВТРАТИ ПОВЕРНУТИ:
Гаррі Гудману

12
00:24:09,240 --> 00:24:11,075
КАФЕ "Хай-хет"

13
00:30:27,701 --> 00:30:29,286
ПІДГОТОВКА ДО ПАРАДУ ПОКЕМОНІВ

14
00:30:59,942 --> 00:31:01,694
СІ-ЕН-ЕМ

15
00:38:47,242 --> 00:38:48,960
ГІДРОПУШКА

16
00:39:17,939 --> 00:39:20,233
ХЛОПЕЦЬ ТУТ. РАЗОМ ІЗ ПІКАЧУ.

17
00:56:39,647 --> 00:56:41,974
Д-Р ЛОРАН ЗВІЛЬНЕНА
ЧЕРЕЗ СПІРНІ РОЗРОБКИ

14
00:57:12,805 --> 00:57:14,223
ЗАБОРОНЕНА ЗОНА - ТОКСИЧНО

15
00:58:12,239 --> 00:58:14,866
КРИТИЧНЕ ПОЛОЖЕННЯ

16
01:17:47,288 --> 01:17:49,873
КЛІФФОРД ІНДАСТРІЗ

17
01:37:24,506 --> 01:37:27,592
ПОКЕМОН: ДЕТЕКТИВ ПІКАЧУ

HTTPS2HTTPS 
Новенький


З нами з: 05.02.17
Востаннє: 04.09.19
Повідомлень: 14

2019-08-20 19:13  
Фільм не вартий уваги. 3 з 10.
hrustya212 
Новенький


З нами з: 19.07.16
Востаннє: 08.09.19
Повідомлень: 4

2019-09-08 21:05  
Дякую!
Ваш часовий пояс: GMT + 2 Години

Нова тема   Відповісти