Вдова (Сезон 1) / The Widow (Season 1) (2019) 1080p Ukr/Eng | sub Eng

Нові коментарі

Нова тема   Відповісти
Автор Повідомлення
Anonymous 







2019-08-11 14:23  
Вдова (Сезон 1) / The Widow (Season 1) (2019) 1080p Ukr/Eng | sub Eng

Вдова (Сезон 1) / The Widow (Season 1) (2019) 1080p Ukr/Eng | sub Eng


Жанр: трилер
Країна: Велика Британія



Кінокомпанія: Film Afrika Worldwide, Two Brothers Pictures
Режисер: Гаррі Вільямс (Harry Williams), Джек Вільямс (Jack Williams)
Актори: Кейт Бекінсейл (Kate Beckinsale), Алекс Кінгстон (Alex Kingston), Бабс Олусанмокун (Babs Olusanmokun), Чарльз Денс (Charles Dance), Оулавюр Даррі Оулафссон (Ólafur Darri Ólafsson), Барт Фуше (Bart Fouche), Метью Ле Невес (Matthew Le Nevez) та інші

Сюжет:
Джорджія Уеллс переживає не найкращі часи свого життя. Вона страждає через втрату коханого чоловіка, який загинув в авіакатастрофі. Тепер жінка намагається знайти новий сенс життя, але її реальність перевертається з ніг на голову, коли Джорджія зауважує в новинах свого чоловіка. Він живий і неушкоджений, дивиться прямо на неї з екрану телевізора. Головна героїня не розуміє, що відбувається. Вона не може повірити в те, що бачить. Невже улюблений вижив? Невже все, що говорилося в новинах, брехня? Жінка вирушає в Конго, щоб провести приватне розслідування катастрофи літака, в якому перебував її чоловік. Правда виявиться лячною. Чи готова Джорджія до ще одного несподіваного повороту долі?


Тривалість: 1 серія: ~45 хв. (цілком серій: 8)
Перелік серій
01) Mr. Tequila
02) Green Lion
03) The Survivors
04) Violet
05) Poteza
06) The Spider and the Web
07) Will
08) Nigel
Якість:
Відео:
кодек:
розмір кадру: 1920 х 960
бітрейт: ~9 мб/с

Аудіо # 1:
мова: українська
переклад: багатоголосий закадровий | DniproFilm
кодек: 5.1
бітрейт: 384 кб/с
Підтримати українське озвучення
Для студії дуже важлива популярність, від цього залежить кількість замовлень українського озвучення у студії та й саме її існування. Підписуйтесь на телеграм-канал студії та дивиться/завантажуйте нові релізи на майданчиках, куди викладає сама студія.

Аудіо # 2:
мова: англійська
переклад: оригінал
кодек: 5.1
бітрейт: 1509 кб/с

Субтитри:
мова: англійська
тип: пререндерні
формат: *.sub
Info
General
Unique ID : 49684423275844526868769654374857806669 (0x2560DF31EEA8FB4C591011FA3D09934D)
Complete name : E:\Support\The Widow (Season 1) [, 1080p, Ukr, Eng]\The Widow. s01e01. Mr. Tequila.
Format :
Format version : Version 4
File size : 3.41 GiB
Duration : 49 min 13 s
Overall bit rate : 9 924 kb/s
Encoded date : UTC 2019-08-08 19:56:39
Writing application : v35.0.0 ('All The Love In The World') 64-bit
Writing library : libebml v1.3.9 + v1.5.2

Video
ID : 1
Format : AVC
Format/Info : Advanced Video Codec
Format profile : [email protected]
Format settings : CABAC / 4 Ref Frames
Format settings, CABAC : Yes
Format settings, ReFrames : 4 frames
Codec ID : V_MPEG4/ISO/AVC
Duration : 49 min 13 s
Bit rate : 8 021 kb/s
Width : 1 920 pixels
Height : 960 pixels
Display aspect ratio : 2.000
Frame rate mode : Constant
Frame rate : 25.000 FPS
Color space : YUV
Chroma subsampling : 4:2:0
Bit depth : 8 bits
Scan type : Progressive
Bits/(Pixel*Frame) : 0.174
Stream size : 2.76 GiB (81%)
Writing library : core 157 r2970 5493be8
Encoding settings : cabac=1 / ref=4 / deblock=1:-3:-3 / analyse=0x3:0x113 / me=umh / subme=8 / psy=1 / psy_rd=1.00:0.00 / mixed_ref=1 / me_range=32 / chroma_me=1 / trellis=1 / 8x8dct=1 / cqm=0 / deadzone=21,11 / fast_pskip=1 / chroma_qp_offset=-2 / threads=24 / lookahead_threads=4 / sliced_threads=0 / nr=0 / decimate=1 / interlaced=0 / bluray_compat=0 / constrained_intra=0 / bframes=3 / b_pyramid=2 / b_adapt=2 / b_bias=0 / direct=3 / weightb=1 / open_gop=0 / weightp=2 / keyint=250 / keyint_min=25 / scenecut=40 / intra_refresh=0 / rc_lookahead=50 / rc=2pass / mbtree=1 / bitrate=8021 / ratetol=1.0 / qcomp=0.60 / qpmin=0 / qpmax=69 / qpstep=4 / cplxblur=20.0 / qblur=0.5 / ip_ratio=1.40 / aq=3:0.80
Language : English
Default : Yes
Forced : No

Audio #1
ID : 2
Format : AC-3
Format/Info : Audio Coding 3
Commercial name : Dolby Digital
Codec ID : A_AC3
Duration : 49 min 12 s
Bit rate mode : Constant
Bit rate : 384 kb/s
Channel(s) : 6 channels
Channel layout : L R C LFE Ls Rs
Sampling rate : 48.0 kHz
Frame rate : 31.250 FPS (1536 SPF)
Bit depth : 16 bits
Compression mode : Lossy
Stream size : 135 MiB (4%)
Title : DniproFilm
Language : Ukrainian
Service kind : Complete Main
Default : Yes
Forced : No

Audio #2
ID : 3
Format :
Format/Info : Digital Theater Systems
Codec ID : A_DTS
Duration : 49 min 13 s
Bit rate mode : Constant
Bit rate : 1 509 kb/s
Channel(s) : 6 channels
Channel layout : C L R Ls Rs LFE
Sampling rate : 48.0 kHz
Frame rate : 93.750 FPS (512 SPF)
Bit depth : 24 bits
Compression mode : Lossy
Stream size : 531 MiB (15%)
Language : English
Default : No
Forced : No

Text
ID : 4
Format : VobSub
Muxing mode : zlib
Codec ID : S_VOBSUB
Codec ID/Info : Picture based subtitle format used on DVDs
Duration : 48 min 56 s
Bit rate : 10.6 kb/s
Count of elements : 647
Stream size : 3.71 MiB (0%)
Language : English
Default : No
Forced : No

Menu
00:00:00.000 : en:Chapter 01
00:10:50.240 : en:Chapter 02
00:20:11.640 : en:Chapter 03
00:35:02.120 : en:Chapter 04
00:48:32.000 : en:Chapter 05
Скріншоти
Джерело:
Особиста оцінка: 7 - сподобалось





Авторський реліз (завантажувати можна без реєстрації)
 Трекер:    Зареєстрований   

Завантажити / скачати серіал українською



відео для новачків



 Зареєстрований:   2019-08-11 14:23
 Розмір:   27.22 GB 
 Оцінка серіалу:   8.1/10 (Голосів: 8)
   
Anonymous 







2019-08-18 11:30  
Реліз тиждень висить без перевірки, модератори, агов Happy
Ваш часовий пояс: GMT + 2 Години

Нова тема   Відповісти