Кінець ї***ого світу (Сезон 1) / The End of the F***ing World (Season 1) (2017) 1080p Ukr/Eng | Sub Ukr/Eng

Нові коментарі

Нова тема   Відповісти
Автор Повідомлення
Anonymous 







2019-08-11 13:33  
Кінець ї***ого світу (Сезон 1) / The End of the F***ing World (Season 1) (2017) 1080p Ukr/Eng | Sub Ukr/Eng

Кінець ї***ого світу (Сезон 1) / The End of the F***ing World (Season 1) (2017) 1080p Ukr/Eng | Sub Ukr/Eng


Жанр: чорна комедія, абсурдизм
Країна: Велика Британія
Кінокомпанія: Channel 4 / Netflix
Режисер: Джонатан Ентвісл, Люсі Черняк
Актори: Алекс Лотер, Джессіка Барден, Стів Орам

Сюжет:
Кінець ї***ого світу — британський абсурдистський чорний драмедійний телесеріал, заснований на коміксах Чарльза Форсмена «Кінець їбаного світу».

Джеймс — 17-річний підліток, який вважає себе психопатом. Його хоббі — убивати тварин, але з часом ця забава його знуджує. Після знайомства з 17-річною бунтівною однокласницею Алісою, він вирішує убити її, але пізніше закохується у неї, і вони відправляються у дорожню пригоду.

Тривалість: 1 серія: ~ 20:00 (цілком серій: 8)
Перелік серій
Episode #1.1
Episode #1.2
Episode #1.3
Episode #1.4
Episode #1.5
Episode #1.6
Episode #1.7
Episode #1.8
Якість:

Відео:
кодек:
розмір кадру: 1920 x 1080
бітрейт: 12 929 кб/с

Аудіо # 1:
мова: українська
переклад: багатоголосий закадровий | KinoMania
кодек: AC-3 2.0
бітрейт: 192 кб/с

Аудіо # 2:
мова: англійська
переклад: оригінал
кодек: AC-3 5.1
бітрейт: 384 кб/с

Субтитри # 1: (Full by ivasykus)
мова: українська
тип: програмні (м'які)
формат: *.srt

Субтитри # 2-3: (Full, SDH)
мова: англійська
тип: програмні (м'які)
формат: *.srt


Info
Код:
General
Unique ID                                : 165959041849004547715123542385687371052 (0x7CDA8C7FB8CD22EB98C3A6B28DC59D2C)
Complete name                            : 01. The End of the F___ing World (2017) - S01E01 - Episode 1 - 1080p [UKR_ENG] [Hurtom].
Format                                   :
Format version                           : Version 4
File size                                : 1.78 GiB
Duration                                 : 19 min 0 s
Overall bit rate                         : 13.4 Mb/s
Movie name                               : The End of the F***ing World (2017) - S01E01 - Episode 1
Encoded date                             : UTC 2019-08-11 10:55:18
Writing application                      : v20.0.0 ('I Am The Sun') 64-bit
Writing library                          : libebml v1.3.5 + v1.4.8
Cover                                    : Yes
Attachments                              : Cover.jpg

Video
ID                                       : 1
Format                                   : AVC
Format/Info                              : Advanced Video Codec
Format profile                           : [email protected]
Format settings                          : CABAC / 4 Ref Frames
Format settings, CABAC                   : Yes
Format settings, Reference frames        : 4 frames
Codec ID                                 : V_MPEG4/ISO/AVC
Duration                                 : 18 min 54 s
Bit rate                                 : 12.9 Mb/s
Width                                    : 1 920 pixels
Height                                   : 1 080 pixels
Display aspect ratio                     : 16:9
Frame rate mode                          : Constant
Frame rate                               : 25.000 FPS
Color space                              : YUV
Chroma subsampling                       : 4:2:0
Bit depth                                : 8 bits
Scan type                                : Progressive
Bits/(Pixel*Frame)                       : 0.249
Stream size                              : 1.71 GiB (96%)
Title                                    : The End of the F***ing World (2017) - S01E01 - Episode 1
Writing library                          : core 152 r2851kMod ba24899
Encoding settings                        : cabac=1 / ref=4 / deblock=1:-3:-3 / analyse=0x3:0x133 / me=umh / subme=10 / psy=1 / fade_compensate=0.00 / psy_rd=1.00:0.00 / mixed_ref=1 / me_range=48 / chroma_me=1 / trellis=2 / 8x8dct=1 / cqm=0 / deadzone=21,11 / fast_pskip=0 / chroma_qp_offset=-2 / threads=12 / lookahead_threads=2 / sliced_threads=0 / nr=0 / decimate=0 / interlaced=0 / bluray_compat=0 / constrained_intra=0 / bframes=8 / b_pyramid=2 / b_adapt=2 / b_bias=0 / direct=3 / weightb=1 / open_gop=0 / weightp=2 / keyint=250 / keyint_min=25 / scenecut=40 / intra_refresh=0 / rc=crf / mbtree=0 / crf=18.0000 / qcomp=0.60 / qpmin=0 / qpmax=69 / qpstep=4 / ip_ratio=1.30 / pb_ratio=1.20 / aq=3:0.80
Language                                 : English
Default                                  : Yes
Forced                                   : No

Audio #1
ID                                       : 2
Format                                   : AC-3
Format/Info                              : Audio Coding 3
Commercial name                          : Dolby Digital
Codec ID                                 : A_AC3
Duration                                 : 19 min 0 s
Bit rate mode                            : Constant
Bit rate                                 : 192 kb/s
Channel(s)                               : 2 channels
Channel layout                           : L R
Sampling rate                            : 48.0 kHz
Frame rate                               : 31.250 FPS (1536 SPF)
Bit depth                                : 16 bits
Compression mode                         : Lossy
Stream size                              : 26.1 MiB (1%)
Title                                    : / 5.1 Ch / 192 kbps / БЗ / KinoMania
Language                                 : Ukrainian
Service kind                             : Complete Main
Default                                  : Yes
Forced                                   : Yes

Audio #2
ID                                       : 3
Format                                   : AC-3
Format/Info                              : Audio Coding 3
Commercial name                          : Dolby Digital
Codec ID                                 : A_AC3
Duration                                 : 18 min 54 s
Bit rate mode                            : Constant
Bit rate                                 : 384 kb/s
Channel(s)                               : 6 channels
Channel layout                           : L R C LFE Ls Rs
Sampling rate                            : 48.0 kHz
Frame rate                               : 31.250 FPS (1536 SPF)
Bit depth                                : 16 bits
Compression mode                         : Lossy
Stream size                              : 51.9 MiB (3%)
Title                                    : / 5.1 Ch / 384 kbps / Original
Language                                 : English
Service kind                             : Complete Main
Default                                  : No
Forced                                   : No

Text #1
ID                                       : 4
Format                                   : UTF-8
Codec ID                                 : S_TEXT/UTF8
Codec ID/Info                            : UTF-8 Plain Text
Duration                                 : 18 min 6 s
Bit rate                                 : 100 b/s
Count of elements                        : 348
Stream size                              : 13.4 KiB (0%)
Title                                    : Full by ivasykus
Language                                 : Ukrainian
Default                                  : Yes
Forced                                   : No

Text #2
ID                                       : 5
Format                                   : UTF-8
Codec ID                                 : S_TEXT/UTF8
Codec ID/Info                            : UTF-8 Plain Text
Duration                                 : 18 min 1 s
Bit rate                                 : 68 b/s
Count of elements                        : 284
Stream size                              : 9.01 KiB (0%)
Title                                    : Full
Language                                 : English
Default                                  : No
Forced                                   : No

Text #3
ID                                       : 6
Format                                   : UTF-8
Codec ID                                 : S_TEXT/UTF8
Codec ID/Info                            : UTF-8 Plain Text
Duration                                 : 18 min 4 s
Bit rate                                 : 77 b/s
Count of elements                        : 339
Stream size                              : 10.3 KiB (0%)
Title                                    : SDH
Language                                 : English
Default                                  : No
Forced                                   : No
Світлини




Джерело: &
Особиста оцінка: 10 - без зайвих вагань рекомендую всім!


Авторський реліз (завантажувати можна без реєстрації)
 Трекер:    Зареєстрований   

Завантажити / скачати серіал українською



відео для новачків



 Зареєстрований:   2019-08-11 13:33
 Розмір:   16.77 GB 
 Оцінка серіалу:   8.5/10 (Голосів: 6)
   
LastExile 
Частий відвідувач


З нами з: 25.09.10
Востаннє: 13.09.20
Повідомлень: 26

2019-08-31 22:37  
Дякую за субтитри!
VladMonteri 
Новенький


З нами з: 23.05.19
Востаннє: 03.12.20
Повідомлень: 5

2019-12-06 02:35  
Хто вже переглянув, може поділитися враженнями?
Anonymous 







2019-12-06 03:36  
VladMonteri
Звісно. На перший погляд, прочитавши опис, здається, що це якась підліткова бредота. Та після перегляду цілого сезону, відношення кардинально змінюється. Цей серіал, як ковток свіжого повітря - трохи чорноти та комедії, а то й трагедії.

VladMonteri 
Новенький


З нами з: 23.05.19
Востаннє: 03.12.20
Повідомлень: 5

2019-12-07 02:49  
Anonymous
Дякую, саме такі думки в мене і були про "підлітків" Happy

VladMonteri 
Новенький


З нами з: 23.05.19
Востаннє: 03.12.20
Повідомлень: 5

2020-01-20 12:49  
Рекомендую до перегляду. Цікавий серіал з мотивами мандрів і пошуків самого себе. Не набридає. Не має спадку з однієї серії до другої, в тому що "перша серія була цікавіша і бла бла...", в цьому звичайно допомагає короткий хронометраж серії, 16хв. Можна переглянути повністю за один раз в вечері, що я і зробив Wide grin
Ваш часовий пояс: GMT + 2 Години

Нова тема   Відповісти