Кінець ї***ого світу (Сезон 1) / The End of the F***ing World (Season 1) (2017) 720p Ukr/Eng | Sub Ukr/Eng

Нові коментарі

Нова тема   Відповісти
Автор Повідомлення
Anonymous 







2019-08-11 13:31  
Кінець ї***ого світу (Сезон 1) / The End of the F***ing World (Season 1) (2017) 720p Ukr/Eng | Sub Ukr/Eng

Кінець ї***ого світу (Сезон 1) / The End of the F***ing World (Season 1) (2017) 720p Ukr/Eng | Sub Ukr/Eng


Жанр: чорна комедія, абсурдизм
Країна: Велика Британія
Кінокомпанія: Channel 4 / Netflix
Режисер: Джонатан Ентвісл, Люсі Черняк
Актори: Алекс Лотер, Джессіка Барден, Стів Орам

Сюжет:
Кінець ї***ого світу — британський абсурдистський чорний драмедійний телесеріал, заснований на коміксах Чарльза Форсмена «Кінець їбаного світу».

Джеймс — 17-річний підліток, який вважає себе психопатом. Його хоббі — убивати тварин, але з часом ця забава його знуджує. Після знайомства з 17-річною бунтівною однокласницею Алісою, він вирішує убити її, але пізніше закохується у неї, і вони відправляються у дорожню пригоду.

Тривалість: 1 серія: ~ 20:00 (цілком серій: 8)
Перелік серій
Episode #1.1
Episode #1.2
Episode #1.3
Episode #1.4
Episode #1.5
Episode #1.6
Episode #1.7
Episode #1.8
Якість:

Відео:
кодек:
розмір кадру: 1280 x 720
бітрейт: 5 412 кб/с

Аудіо # 1:
мова: українська
переклад: багатоголосий закадровий | KinoMania
кодек: AC-3 2.0
бітрейт: 192 кб/с

Аудіо # 2:
мова: англійська
переклад: оригінал
кодек: AC-3 5.1
бітрейт: 384 кб/с

Субтитри # 1: (Full by ivasykus)
мова: українська
тип: програмні (м'які)
формат: *.srt

Субтитри # 2-3: (Full, SDH)
мова: англійська
тип: програмні (м'які)
формат: *.srt


Info
Код:
General
Unique ID                                : 14234003951821389597918436240344858433 (0xAB55E93E0ADD56B85405B9F90EDBF41)
Complete name                            : 01. The End of the F___ing World (2017) - S01E01 - Episode 1 - 720p [UKR_ENG] [Hurtom].
Format                                   :
Format version                           : Version 4
File size                                : 811 MiB
Duration                                 : 19 min 0 s
Overall bit rate                         : 5 966 kb/s
Movie name                               : The End of the F***ing World (2017) - S01E01 - Episode 1
Encoded date                             : UTC 2019-08-11 11:04:54
Writing application                      : v20.0.0 ('I Am The Sun') 64-bit
Writing library                          : libebml v1.3.5 + v1.4.8
Cover                                    : Yes
Attachments                              : Cover.jpg

Video
ID                                       : 1
Format                                   : AVC
Format/Info                              : Advanced Video Codec
Format profile                           : [email protected]
Format settings                          : CABAC / 9 Ref Frames
Format settings, CABAC                   : Yes
Format settings, Reference frames        : 9 frames
Codec ID                                 : V_MPEG4/ISO/AVC
Duration                                 : 18 min 54 s
Bit rate                                 : 5 412 kb/s
Width                                    : 1 280 pixels
Height                                   : 720 pixels
Display aspect ratio                     : 16:9
Frame rate mode                          : Constant
Frame rate                               : 25.000 FPS
Color space                              : YUV
Chroma subsampling                       : 4:2:0
Bit depth                                : 8 bits
Scan type                                : Progressive
Bits/(Pixel*Frame)                       : 0.235
Stream size                              : 732 MiB (90%)
Title                                    : The End of the F***ing World (2017) - S01E01 - Episode 1
Writing library                          : core 152 r2851kMod ba24899
Encoding settings                        : cabac=1 / ref=9 / deblock=1:-3:-3 / analyse=0x3:0x133 / me=umh / subme=10 / psy=1 / fade_compensate=0.00 / psy_rd=1.00:0.00 / mixed_ref=1 / me_range=48 / chroma_me=1 / trellis=2 / 8x8dct=1 / cqm=0 / deadzone=21,11 / fast_pskip=0 / chroma_qp_offset=-2 / threads=12 / lookahead_threads=2 / sliced_threads=0 / nr=0 / decimate=0 / interlaced=0 / bluray_compat=0 / constrained_intra=0 / bframes=8 / b_pyramid=2 / b_adapt=2 / b_bias=0 / direct=3 / weightb=1 / open_gop=0 / weightp=2 / keyint=250 / keyint_min=25 / scenecut=40 / intra_refresh=0 / rc=crf / mbtree=0 / crf=17.0000 / qcomp=0.60 / qpmin=0 / qpmax=69 / qpstep=4 / ip_ratio=1.30 / pb_ratio=1.20 / aq=3:0.80
Language                                 : English
Default                                  : Yes
Forced                                   : No

Audio #1
ID                                       : 2
Format                                   : AC-3
Format/Info                              : Audio Coding 3
Commercial name                          : Dolby Digital
Codec ID                                 : A_AC3
Duration                                 : 19 min 0 s
Bit rate mode                            : Constant
Bit rate                                 : 192 kb/s
Channel(s)                               : 2 channels
Channel layout                           : L R
Sampling rate                            : 48.0 kHz
Frame rate                               : 31.250 FPS (1536 SPF)
Bit depth                                : 16 bits
Compression mode                         : Lossy
Stream size                              : 26.1 MiB (3%)
Title                                    : / 5.1 Ch / 192 kbps / БЗ / KinoMania
Language                                 : Ukrainian
Service kind                             : Complete Main
Default                                  : Yes
Forced                                   : Yes

Audio #2
ID                                       : 3
Format                                   : AC-3
Format/Info                              : Audio Coding 3
Commercial name                          : Dolby Digital
Codec ID                                 : A_AC3
Duration                                 : 18 min 54 s
Bit rate mode                            : Constant
Bit rate                                 : 384 kb/s
Channel(s)                               : 6 channels
Channel layout                           : L R C LFE Ls Rs
Sampling rate                            : 48.0 kHz
Frame rate                               : 31.250 FPS (1536 SPF)
Bit depth                                : 16 bits
Compression mode                         : Lossy
Stream size                              : 51.9 MiB (6%)
Title                                    : / 5.1 Ch / 384 kbps / Original
Language                                 : English
Service kind                             : Complete Main
Default                                  : No
Forced                                   : No

Text #1
ID                                       : 4
Format                                   : UTF-8
Codec ID                                 : S_TEXT/UTF8
Codec ID/Info                            : UTF-8 Plain Text
Duration                                 : 18 min 6 s
Bit rate                                 : 100 b/s
Count of elements                        : 348
Stream size                              : 13.4 KiB (0%)
Title                                    : Full by ivasykus
Language                                 : Ukrainian
Default                                  : Yes
Forced                                   : No

Text #2
ID                                       : 5
Format                                   : UTF-8
Codec ID                                 : S_TEXT/UTF8
Codec ID/Info                            : UTF-8 Plain Text
Duration                                 : 18 min 1 s
Bit rate                                 : 68 b/s
Count of elements                        : 284
Stream size                              : 9.01 KiB (0%)
Title                                    : Full
Language                                 : English
Default                                  : No
Forced                                   : No

Text #3
ID                                       : 6
Format                                   : UTF-8
Codec ID                                 : S_TEXT/UTF8
Codec ID/Info                            : UTF-8 Plain Text
Duration                                 : 18 min 4 s
Bit rate                                 : 77 b/s
Count of elements                        : 339
Stream size                              : 10.3 KiB (0%)
Title                                    : SDH
Language                                 : English
Default                                  : No
Forced                                   : No
Світлини




Джерело: &
Особиста оцінка: 10 - без зайвих вагань рекомендую всім!


Авторський реліз (завантажувати можна без реєстрації)
 Трекер:    Зареєстрований   

Завантажити / скачати серіал українською



відео для новачків



 Зареєстрований:   2019-08-11 13:31
 Розмір:   7.58 GB 
 Оцінка серіалу:   9.6/10 (Голосів: 8)
   
Alex Smith 
Новенький


З нами з: 18.04.17
Востаннє: 22.11.20
Повідомлень: 14

2019-08-13 10:56  
Я щиро вибачаюсь, але не міг би хто небудь підказати яке саме слово ховається за зірочками в українському варіанті? Щось мені окрім "їжакового" або "їхнього" нічого на думку не спадає.
Estranded 
VIP


З нами з: 09.02.14
Востаннє: 01.12.20
Повідомлень: 1527

2019-08-13 18:33  
ї***ь, який це класний серіалHappy
Чекаю на другий сезон.

Estranded 
VIP


З нами з: 09.02.14
Востаннє: 01.12.20
Повідомлень: 1527

2019-08-15 21:19  
Додивився. Серіал класно знятий, спочатку все дійсно здавалося божевіллям, а ближче до кінця сезону - це вже проста кримінальна драма. Варто відзначити озвучення - радує, що перекладено з матюками, брутально. Єдиний нюанс, що фонові звуки дуже тихо чути. Студії варто це врахувати у майбутніх роботах.
8/10 — вартує глянути!

Pan_Kapelyuh 
Частий відвідувач


З нами з: 15.11.15
Востаннє: 30.11.20
Повідомлень: 36

2019-08-20 23:23  
Та це ж просто шедевр!!
Гра акторів просто геніальна! Не думав, що такі молоді можуть так круто зіграти... Прописування персонажів по сюжету - це щось неймовірне, повністю відчуваєш їх і розумієш їх вчинки!! Ну і звісно зміна їх самих протягом історії, ахххх! Я навіть не знаю з чим порівняти цей витвір мистецтва. Мабуть, чогось подібного не зустрічав ніколи!
10/10!!!
Однозначно рекомендую до перегляду! (Вдумчивого звісно!)
Також рекомендую дивитись в оригіналі з сабами, особливий відтінок і тон в тих голосах!

volohatuy1 
Новенький


З нами з: 13.07.12
Востаннє: 02.12.20
Повідомлень: 17

2019-08-31 23:10  
До чого тут абсурдизм? Якийсь Іван Синєпалов з Маріуполя ляпнув, не розуміючи терміну, і вже маємо у Вікіпедії і на Толоці "оригінальну" українську інтерпретацію. Жанр цього фільму dark comedy-drama, тобто, "чорна комедія, драма". Нема там ні абсурдизму, ні абсурду.
ivasykus 
VIP


З нами з: 10.02.09
Востаннє: 01.12.20
Повідомлень: 603

2019-11-07 12:31  
Вже є другий сезон з українськими сабами.
div4eater 
Частий відвідувач


З нами з: 09.06.17
Востаннє: 30.11.20
Повідомлень: 31

2019-11-27 18:51  
Estranded
Alex Smith написано:
Я щиро вибачаюсь, але не міг би хто небудь підказати яке саме слово ховається за зірочками в українському варіанті? Щось мені окрім "їжакового" або "їхнього" нічого на думку не спадає.

*** = БАН/БУЧ. Будь ласка.

don pedro 
Попереджень: 1
Попереджень: 1 


З нами з: 29.06.11
Востаннє: 02.12.20
Повідомлень: 18222

2019-11-27 19:04  
Alex Smith
"Їстівного" світу. Світ з'їли демони, їжа закінчилась, і залишки людей з обрізами у руках, борються за життя у пустелі. Усе є на постері.

jaguar_arx 
Свій


З нами з: 27.08.12
Востаннє: 02.12.20
Повідомлень: 99

2020-07-18 01:46  
Це шедевр. Однозначно треба дивитись усім. Крута гра акторів, класні персонажі, круті діалоги, купа комедійних моментів і серйозна драма. Офігенна суміш.
Ваш часовий пояс: GMT + 2 Години

Нова тема   Відповісти