Кінець ї***ого світу (Сезон 1) / The End of the F***ing World (Season 1) (2017) Ukr/Eng | Sub Ukr/Eng

Нові коментарі

Нова тема   Відповісти
Автор Повідомлення
Anonymous 







2019-08-11 14:27  
Кінець ї***ого світу (Сезон 1) / The End of the F***ing World (Season 1) (2017) Ukr/Eng | Sub Ukr/Eng

Кінець ї***ого світу (Сезон 1) / The End of the F***ing World (Season 1) (2017) Ukr/Eng | Sub Ukr/Eng


Жанр: чорна комедія, абсурдизм
Країна: Велика Британія
Кінокомпанія: Channel 4 / Netflix
Режисер: Джонатан Ентвісл, Люсі Черняк
Актори: Алекс Лотер, Джессіка Барден, Стів Орам

Сюжет:
Кінець ї***ого світу — британський абсурдистський чорний драмедійний телесеріал, заснований на коміксах Чарльза Форсмена «Кінець їбаного світу».

Джеймс — 17-річний підліток, який вважає себе психопатом. Його хоббі — убивати тварин, але з часом ця забава його знуджує. Після знайомства з 17-річною бунтівною однокласницею Алісою, він вирішує убити її, але пізніше закохується у неї, і вони відправляються у дорожню пригоду.

Тривалість: 1 серія: ~ 20:00 (цілком серій: 8)
Перелік серій
Episode #1.1
Episode #1.2
Episode #1.3
Episode #1.4
Episode #1.5
Episode #1.6
Episode #1.7
Episode #1.8
Якість:

Відео:
кодек:
розмір кадру: 720 x 400
бітрейт: 1 399 кб/с

Аудіо # 1:
мова: українська
переклад: багатоголосий закадровий | KinoMania
кодек: AC-3 2.0
бітрейт: 192 кб/с

Аудіо # 2:
мова: англійська
переклад: оригінал
кодек: AC-3 5.1
бітрейт: 384 кб/с

Субтитри # 1: (Full by ivasykus)
мова: українська
тип: програмні (м'які)
формат: *.srt

Субтитри # 2-3: (Full, SDH)
мова: англійська
тип: програмні (м'які)
формат: *.srt


Info
Код:
General
Unique ID                                : 172338440352583029026028214660031654491 (0x81A72D20F9830D7D12C67C3953ED2A5B)
Complete name                            : 01. The End of the F___ing World (2017) - S01E01 - Episode 1 - [UKR_ENG] [Hurtom].
Format                                   :
Format version                           : Version 4
File size                                : 268 MiB
Duration                                 : 19 min 0 s
Overall bit rate                         : 1 975 kb/s
Movie name                               : The End of the F***ing World (2017) - S01E01 - Episode 1
Encoded date                             : UTC 2019-08-11 11:10:36
Writing application                      : v20.0.0 ('I Am The Sun') 64-bit
Writing library                          : libebml v1.3.5 + v1.4.8
Cover                                    : Yes
Attachments                              : Cover.jpg

Video
ID                                       : 1
Format                                   : MPEG-4 Visual
Format profile                           : Advanced [email protected]
Format settings                          : BVOP2 / Custom Matrix
Format settings, BVOP                    : 2
Format settings, QPel                    : No
Format settings, GMC                     : No warppoints
Format settings, Matrix                  : Custom
Codec ID                                 : V_MS/VFW/FOURCC /
Codec ID/Hint                            :
Duration                                 : 18 min 54 s
Bit rate                                 : 1 400 kb/s
Width                                    : 720 pixels
Height                                   : 400 pixels
Display aspect ratio                     : 16:9
Frame rate mode                          : Constant
Frame rate                               : 25.000 FPS
Color space                              : YUV
Chroma subsampling                       : 4:2:0
Bit depth                                : 8 bits
Scan type                                : Progressive
Compression mode                         : Lossy
Bits/(Pixel*Frame)                       : 0.194
Stream size                              : 189 MiB (71%)
Title                                    : The End of the F***ing World (2017) - S01E01 - Episode 1
Writing library                          : 73
Default                                  : Yes
Forced                                   : No

Audio #1
ID                                       : 2
Format                                   : AC-3
Format/Info                              : Audio Coding 3
Commercial name                          : Dolby Digital
Codec ID                                 : A_AC3
Duration                                 : 19 min 0 s
Bit rate mode                            : Constant
Bit rate                                 : 192 kb/s
Channel(s)                               : 2 channels
Channel layout                           : L R
Sampling rate                            : 48.0 kHz
Frame rate                               : 31.250 FPS (1536 SPF)
Bit depth                                : 16 bits
Compression mode                         : Lossy
Stream size                              : 26.1 MiB (10%)
Title                                    : / 5.1 Ch / 192 kbps / БЗ / KinoMania
Language                                 : Ukrainian
Service kind                             : Complete Main
Default                                  : Yes
Forced                                   : Yes

Audio #2
ID                                       : 3
Format                                   : AC-3
Format/Info                              : Audio Coding 3
Commercial name                          : Dolby Digital
Codec ID                                 : A_AC3
Duration                                 : 18 min 54 s
Bit rate mode                            : Constant
Bit rate                                 : 384 kb/s
Channel(s)                               : 6 channels
Channel layout                           : L R C LFE Ls Rs
Sampling rate                            : 48.0 kHz
Frame rate                               : 31.250 FPS (1536 SPF)
Bit depth                                : 16 bits
Compression mode                         : Lossy
Stream size                              : 51.9 MiB (19%)
Title                                    : / 5.1 Ch / 384 kbps / Original
Language                                 : English
Service kind                             : Complete Main
Default                                  : No
Forced                                   : No

Text #1
ID                                       : 4
Format                                   : UTF-8
Codec ID                                 : S_TEXT/UTF8
Codec ID/Info                            : UTF-8 Plain Text
Duration                                 : 18 min 6 s
Bit rate                                 : 100 b/s
Count of elements                        : 348
Stream size                              : 13.4 KiB (0%)
Title                                    : Full by ivasykus
Language                                 : Ukrainian
Default                                  : Yes
Forced                                   : No

Text #2
ID                                       : 5
Format                                   : UTF-8
Codec ID                                 : S_TEXT/UTF8
Codec ID/Info                            : UTF-8 Plain Text
Duration                                 : 18 min 1 s
Bit rate                                 : 68 b/s
Count of elements                        : 284
Stream size                              : 9.01 KiB (0%)
Title                                    : Full
Language                                 : English
Default                                  : No
Forced                                   : No

Text #3
ID                                       : 6
Format                                   : UTF-8
Codec ID                                 : S_TEXT/UTF8
Codec ID/Info                            : UTF-8 Plain Text
Duration                                 : 18 min 4 s
Bit rate                                 : 77 b/s
Count of elements                        : 339
Stream size                              : 10.3 KiB (0%)
Title                                    : SDH
Language                                 : English
Default                                  : No
Forced                                   : No
Світлини




Джерело: &
Особиста оцінка: 10 - без зайвих вагань рекомендую всім!


Авторський реліз (завантажувати можна без реєстрації)
 Трекер:    Зареєстрований   

Завантажити / скачати серіал українською



відео для новачків



 Зареєстрований:   2019-08-11 14:27
 Розмір:   2.35 GB 
 Оцінка серіалу:   8/10 (Голосів: 8)
   
d-mytro 
Новенький


З нами з: 26.03.12
Востаннє: 23.08.19
Повідомлень: 17

2019-08-19 01:13  
СПОДОБАЛОСЯ!
gardarart 
Новенький


З нами з: 05.09.10
Востаннє: 21.08.19
Повідомлень: 3

2019-08-21 18:44  
Перечитайте текст. Облиште театральщину. І оригінальний звук має бути розбірливим.
Ваш часовий пояс: GMT + 2 Години

Нова тема   Відповісти