Чемпіонат України 2019-2020 / 3-й тур / Динамо (Київ) - Шахтар (Донецьк) / FootballHub (10.08.2019) 720p

Нові коментарі

Нова тема   Відповісти
Останній раз роздавалося antik_2008 (2019-11-11)
Автор Повідомлення
Anonymous 







2019-08-11 10:48  
Чемпіонат України 2019-2020 / 3-й тур / Динамо (Київ) - Шахтар (Донецьк) / FootballHub (10.08.2019) 720p

Чемпіонат України 2019-2020 / 3-й тур / Динамо (Київ) - Шахтар (Донецьк) / FootballHub (10.08.2019) 720p


Телеканал: FootballHub
Опис:
10 серпня 2019, 17:00

НСК Олімпійський

Головний суддя Ярослав Козик

Помічники судді Ігор Альохін, Семен Шлончак

Запасний суддя Анатолій Абдула
Тривалість:
02:13:23
Якість: 720p
Відео:
кодек:
розмір кадру: 1280 x 720
бітрейт: 2143 кб/с

Аудіо:
мова: українська
переклад: одноголосий закадровий | Ігор Циганик |
кодек: 2.0
бітрейт: 128 кб/с
Скріншоти


















Склади



Info
Код:
General
Complete name                            : Dynamo Kyiv_Shakhtar Donetsk (10.08.2019) 720p.
Format                                   :
Format version                           : Version 4
File size                                : 2.12 GiB
Duration                                 : 2 h 13 min
Overall bit rate                         : 2 273 kb/s
Encoded date                             : UTC 2019-08-10 18:56:37
Writing application                      : v18.0.0 ('Apricity') 64-bit
Writing library                          : libebml v1.3.5 + v1.4.8

Video
ID                                       : 1
Format                                   : AVC
Format/Info                              : Advanced Video Codec
Format profile                           : [email protected]
Format settings                          : CABAC / 3 Ref Frames
Format settings, CABAC                   : Yes
Format settings, RefFrames               : 3 frames
Codec ID                                 : V_MPEG4/ISO/AVC
Duration                                 : 2 h 13 min
Bit rate                                 : 2 143 kb/s
Width                                    : 1 280 pixels
Height                                   : 720 pixels
Display aspect ratio                     : 16:9
Frame rate mode                          : Constant
Frame rate                               : 25.000 FPS
Color space                              : YUV
Chroma subsampling                       : 4:2:0
Bit depth                                : 8 bits
Scan type                                : Progressive
Bits/(Pixel*Frame)                       : 0.093
Stream size                              : 2.00 GiB (94%)
Default                                  : Yes
Forced                                   : No
Color range                              : Limited
Color primaries                          : BT.709
Transfer characteristics                 : BT.709
Matrix coefficients                      : BT.709

Audio
ID                                       : 2
Format                                   : LC
Format/Info                              : Advanced Audio Codec Low Complexity
Codec ID                                 : A_AAC-2
Duration                                 : 2 h 13 min
Bit rate                                 : 128 kb/s
Channel(s)                               : 2 channels
Channel layout                           : L R
Sampling rate                            : 44.1 kHz
Frame rate                               : 43.066 FPS (1024 SPF)
Compression mode                         : Lossy
Stream size                              : 122 MiB (6%)
Default                                  : Yes
Forced                                   : No
Особиста оцінка: 6 - третій сорт - не брак


Золотий реліз (завантажене не впливає на рейтинг)
 Трекер:    Зареєстрований   

Завантажити / скачати торрент



відео для новачків



 Зареєстрований:   2019-08-11 10:48
 Розмір:   2.12 GB 
 Оцінка:   9/10 (Голосів: 1)
   
tilda4334 
VIP


З нами з: 15.08.14
Востаннє: 21.09.20
Повідомлень: 1056

2019-08-11 14:14  
Коментував Олександр Новак, а по ТБ - Ігор Циганик
Ваш часовий пояс: GMT + 2 Години

Нова тема   Відповісти