Будь-якою ціною / Hell or High Water (2016) 720p Ukr/Eng | Sub Eng

Нові коментарі

Нова тема   Відповісти
Автор Повідомлення
Anonymous 







2019-08-11 01:18  
Будь-якою ціною / Hell or High Water (2016) 720p Ukr/Eng | Sub Eng



Жанр: драма, кримінальний
Країна: США



Кінокомпанія: Sidney Kimmel Entertainment, MadisonWellsMedia, Film 44, LBI Productions
Режисер: Девід Маккензі / David Mackenzie
Актори: Кріс Пайн / Chris Pine, Бен Фостер / Ben Foster, Джефф Бріджес / Jeff Bridges, Дейл Діккі / Dale Dickey, Вїльям Стерчі / William Sterchi, Кеті Міксон / Katy Mixon, Крістін Берг / Kristin K. Berg, Джил Бірмінгем / Gil Birmingham, Ембер Мідфандер / Amber Midthunder, Кевін Ранкін / Kevin Rankin та інші

Сюжет:
Двоє братів-невдах вирішують навідатись в сховища кількох банків, які багато років безбожно обкрадають своїх боржників. Розслідування зухвалих пограбувань з грубим почерком увінчає кар'єру шерифа Маркуса. Але куди виведе це нехитре діло?
Офіційний український трейлер (кінотеатральний дубляж):


Рейтинг MPAA: R - особам до 17 років обов'язкова присутність батьків або дорослого опікуна
Вікова категорія: 16+

Тривалість: 01:42:15
Якість:
Відео:
кодек:
розмір кадру: 1280 х 532
бітрейт: 6723 кб/с

Аудіо # 1:
мова: українська
переклад: багатоголосий закадровий
кодек: 2.0 [стерео]
бітрейт: 192 кб/с

Аудіо # 2:
мова: англійська
переклад: оригінал
кодек: 5.1
бітрейт: 640 кб/с

Субтитри # 1:
мова: українська (форсовані)
тип: програмні (м'які)
формат: *.srt
переклад: igor911

Субтитри # 2:
мова: англійська
тип: програмні (м'які)
формат: *.srt

Збережено оригінальні розділи, як на Blu-ray
Info
Код:

Complete name               : Hell or High Water (2016) [Ukr,Eng sub.Eng] 720p [Hurtom].
Format                      :
Format version              : Version 4
File size                   : 5.40 GiB
Duration                    : 1 h 42 min
Overall bit rate            : 7 558 kb/s
Movie name                  : Будь-якою ціною / Hell or High Water (2016) [Ukr,Eng sub.Eng] 720p [Hurtom]
Encoded date                : UTC 2019-08-11 06:09:47
Writing application         : v35.0.0 ('All The Love In The World') 64-bit
Writing library             : libebml v1.3.9 + v1.5.2
Cover                       : Yes
Attachments                 : cover.jpg

Video
ID                          : 1
Format                      : AVC
Format/Info                 : Advanced Video Codec
Format profile              : [email protected]
Format settings             : CABAC / 11 Ref Frames
Format settings, CABAC      : Yes
Format settings, Reference  : 11 frames
Codec ID                    : V_MPEG4/ISO/AVC
Duration                    : 1 h 42 min
Bit rate                    : 6 723 kb/s
Width                       : 1 280 pixels
Height                      : 532 pixels
Display aspect ratio        : 2.40:1
Frame rate mode             : Constant
Frame rate                  : 23.976 (24000/1001) FPS
Color space                 : YUV
Chroma subsampling          : 4:2:0
Bit depth                   : 8 bits
Scan type                   : Progressive
Bits/(Pixel*Frame)          : 0.412
Stream size                 : 4.80 GiB (89%)
Title                       : Будь-якою ціною / Hell or High Water (2016) 720p [denis100]
Writing library             : core 152 r2851 ba24899
Encoding settings           : cabac=1 / ref=11 / deblock=1:-3:-3 / analyse=0x3:0x113 / me=umh / subme=11 / psy=1 / psy_rd=1.00:0.05 / mixed_ref=1 / me_range=32 / chroma_me=1 / trellis=2 / 8x8dct=1 / cqm=0 / deadzone=21,11 / fast_pskip=0 / chroma_qp_offset=-3 / threads=6 / lookahead_threads=1 / sliced_threads=0 / nr=0 / decimate=1 / interlaced=0 / bluray_compat=0 / constrained_intra=0 / bframes=10 / b_pyramid=2 / b_adapt=2 / b_bias=0 / direct=3 / weightb=1 / open_gop=0 / weightp=2 / keyint=240 / keyint_min=23 / scenecut=40 / intra_refresh=0 / rc=2pass / mbtree=0 / bitrate=6723 / ratetol=1.0 / qcomp=0.60 / qpmin=0 / qpmax=69 / qpstep=4 / cplxblur=20.0 / qblur=0.5 / ip_ratio=1.40 / pb_ratio=1.30 / aq=1:0.85
Language                    : English
Default                     : Yes
Forced                      : No

Audio #1
ID                          : 2
Format                      : AC-3
Format/Info                 : Audio Coding 3
Commercial name             : Dolby Digital
Codec ID                    : A_AC3
Duration                    : 1 h 42 min
Bit rate mode               : Constant
Bit rate                    : 192 kb/s
Channel(s)                  : 2 channels
Channel layout              : L R
Sampling rate               : 48.0 kHz
Frame rate                  : 31.250 FPS (1536 SPF)
Bit depth                   : 16 bits
Compression mode            : Lossy
Stream size                 : 140 MiB (3%)
Title                       : MVO [Volya Cine+], 2.0 [stereo] 192 Kbps
Language                    : Ukrainian
Service kind                : Complete Main
Default                     : Yes
Forced                      : No

Audio #2
ID                          : 3
Format                      : AC-3
Format/Info                 : Audio Coding 3
Commercial name             : Dolby Digital
Codec ID                    : A_AC3
Duration                    : 1 h 42 min
Bit rate mode               : Constant
Bit rate                    : 640 kb/s
Channel(s)                  : 6 channels
Channel layout              : L R C LFE Ls Rs
Sampling rate               : 48.0 kHz
Frame rate                  : 31.250 FPS (1536 SPF)
Bit depth                   : 16 bits
Compression mode            : Lossy
Stream size                 : 468 MiB (8%)
Title                       : Original, 5.1 640 Kbps
Language                    : English
Service kind                : Complete Main
Default                     : No
Forced                      : No

Text #1
ID                          : 4
Format                      : UTF-8
Codec ID                    : S_TEXT/UTF8
Codec ID/Info               : UTF-8 Plain Text
Duration                    : 43 min 22 s
Bit rate                    : 3 b/s
Count of elements           : 13
Stream size                 : 1 019 Bytes (0%)
Title                       : Ukr Forced
Language                    : Ukrainian
Default                     : Yes
Forced                      : Yes

Text #2
ID                          : 5
Format                      : UTF-8
Codec ID                    : S_TEXT/UTF8
Codec ID/Info               : UTF-8 Plain Text
Duration                    : 1 h 34 min
Bit rate                    : 52 b/s
Count of elements           : 1167
Stream size                 : 36.7 KiB (0%)
Title                       : Eng Full
Language                    : English
Default                     : No
Forced                      : No

Menu
00:00:00.000                : en:Chapter 1
00:09:37.243                : en:Chapter 2
00:13:50.455                : en:Chapter 3
00:22:14.583                : en:Chapter 4
00:28:40.385                : en:Chapter 5
00:31:54.329                : en:Chapter 6
00:40:49.614                : en:Chapter 7
00:46:49.932                : en:Chapter 8
00:55:45.092                : en:Chapter 9
01:02:06.473                : en:Chapter 10
01:09:52.897                : en:Chapter 11
01:14:04.649                : en:Chapter 12
01:20:56.226                : en:Chapter 13
01:29:09.135                : en:Chapter 14
01:35:03.865                : en:Chapter 15
01:38:28.277                : en:Chapter 16


Джерело: &
Подяка Electroz'у за українську доріжку.


 Трекер:    Зареєстрований   

Завантажити / скачати фільм українською



відео для новачків



 Зареєстрований:   2019-08-11 09:53
 Розмір:   5.4 GB 
 Оцінка фільму:   9.8/10 (Голосів: 23)
   
hudda 
Свій


З нами з: 07.06.09
Востаннє: 27.09.20
Повідомлень: 86

2020-05-19 03:15  
Дякую, Anonymous.
Ваш часовий пояс: GMT + 2 Години

Нова тема   Відповісти