Толкін / Tolkien (2019) 1080p H.265 Ukr/Eng | Sub Ukr/Eng

Нові коментарі

Нова тема   Відповісти
Автор Повідомлення
Anonymous 







2019-08-10 12:13  
Толкін / Tolkien (2019) 1080p H.265 Ukr/Eng | Sub Ukr/Eng

Толкін / Tolkien (2019) 1080p H.265 Ukr/Eng | Sub Ukr/Eng


Жанр: біографія, військовий, драма
Країна: США
Кінокомпанія: Fox Searchlight Pictures, Chernin Entertainment
Режисер: Доме Карукоскі
Актори: Ніколас Голт, Крейг Робертс, Колм Міні, Лаура Доннеллі, Пем Ферріс

Сюжет:
«Толкін» буде досліджувати роки становлення автора-сироти Дж.Р. Р. Толкіна і покаже, як він знаходить справжню дружбу, кохання в особі прекрасної дівчини Ідіт Бретт та натхнення у групі схожих на себе вигнанців у стінах школи. Звідти Толкін відправиться на Першу світову війну, яка загрожує розділити його братство. Пізніше всі ці переживання надихнуть письменника створити його легендарні романи про Середзем'я.

Тривалість: 01:51:42
Якість:

Відео:
кодек: H.265 (HEVC)
розмір кадру: 1920 x 800
бітрейт: 6 909 кб/с
бітова глибина: 10 біт

Увага! Перед завантаженням переконайтесь, що ваш пристрій відтворення (та/або ПЗ) підтримує H.265 (HEVC)

Аудіо # 1:
мова: українська
переклад: професійний дубльований
кодек: AC-3 5.1
бітрейт: 448 кб/с

Аудіо # 2:
мова: англійська
переклад: оригінал
кодек: 5.1
бітрейт: 1510 кб/с

Субтитри # 1-2: (Forced, Full)
мова: українська
тип: програмні (м'які)
формат: *.srt

Субтитри # 3-5: (Full, SDH, Commentary)
мова: англійська
тип: програмні (м'які)
формат: *.srt


Info
Код:
General
Unique ID                                : 204656776612119345065065299744650904227 (0x99F77620ECF5071CE1829D8E90DB42A3)
Complete name                            : Tolkien (2019) 1080p H.265 [UKR_ENG] [Hurtom].
Format                                   :
Format version                           : Version 4
File size                                : 6.92 GiB
Duration                                 : 1 h 51 min
Overall bit rate                         : 8 873 kb/s
Movie name                               : Толкін / Tolkien (2019)
Encoded date                             : UTC 2019-10-10 19:02:44
Writing application                      : v20.0.0 ('I Am The Sun') 64-bit
Writing library                          : libebml v1.3.5 + v1.4.8
Cover                                    : Yes
Attachments                              : Cover.jpg

Video
ID                                       : 1
Format                                   : HEVC
Format/Info                              : High Efficiency Video Coding
Format profile                           : Main [email protected]@High
Codec ID                                 : V_MPEGH/ISO/HEVC
Duration                                 : 1 h 51 min
Bit rate                                 : 6 909 kb/s
Width                                    : 1 920 pixels
Height                                   : 800 pixels
Display aspect ratio                     : 2.40:1
Frame rate mode                          : Constant
Frame rate                               : 23.976 (24000/1001) FPS
Color space                              : YUV
Chroma subsampling                       : 4:2:0
Bit depth                                : 10 bits
Bits/(Pixel*Frame)                       : 0.188
Stream size                              : 5.39 GiB (78%)
Title                                    : Толкін / Tolkien (2019)
Language                                 : English
Default                                  : Yes
Forced                                   : No
Color range                              : Limited
Color primaries                          : BT.709
Transfer characteristics                 : BT.709
Matrix coefficients                      : BT.709

Audio #1
ID                                       : 2
Format                                   : AC-3
Format/Info                              : Audio Coding 3
Commercial name                          : Dolby Digital
Codec ID                                 : A_AC3
Duration                                 : 1 h 51 min
Bit rate mode                            : Constant
Bit rate                                 : 448 kb/s
Channel(s)                               : 6 channels
Channel layout                           : L R C LFE Ls Rs
Sampling rate                            : 48.0 kHz
Frame rate                               : 31.250 FPS (1536 SPF)
Bit depth                                : 16 bits
Compression mode                         : Lossy
Stream size                              : 358 MiB (5%)
Title                                    : / 5.1 Ch / 448 kbps / ПД / Blu-Ray
Language                                 : Ukrainian
Service kind                             : Complete Main
Default                                  : Yes
Forced                                   : Yes

Audio #2
ID                                       : 3
Format                                   :
Format/Info                              : Digital Theater Systems
Codec ID                                 : A_DTS
Duration                                 : 1 h 51 min
Bit rate mode                            : Constant
Bit rate                                 : 1 509 kb/s
Channel(s)                               : 6 channels
Channel layout                           : C L R Ls Rs LFE
Sampling rate                            : 48.0 kHz
Frame rate                               : 93.750 FPS (512 SPF)
Bit depth                                : 24 bits
Compression mode                         : Lossy
Delay relative to video                  : 4 ms
Stream size                              : 1.18 GiB (17%)
Title                                    : / 5.1 Ch / 1509 kbps / Original
Language                                 : English
Default                                  : No
Forced                                   : No

Text #1
ID                                       : 4
Format                                   : UTF-8
Codec ID                                 : S_TEXT/UTF8
Codec ID/Info                            : UTF-8 Plain Text
Duration                                 : 1 h 14 min
Bit rate                                 : 0 b/s
Count of elements                        : 8
Stream size                              : 365 Bytes (0%)
Title                                    : Forced
Language                                 : Ukrainian
Default                                  : Yes
Forced                                   : Yes

Text #2
ID                                       : 5
Format                                   : UTF-8
Codec ID                                 : S_TEXT/UTF8
Codec ID/Info                            : UTF-8 Plain Text
Duration                                 : 1 h 45 min
Bit rate                                 : 90 b/s
Count of elements                        : 1390
Stream size                              : 69.6 KiB (0%)
Title                                    : Full
Language                                 : Ukrainian
Default                                  : No
Forced                                   : No

Text #3
ID                                       : 6
Format                                   : UTF-8
Codec ID                                 : S_TEXT/UTF8
Codec ID/Info                            : UTF-8 Plain Text
Duration                                 : 1 h 43 min
Bit rate                                 : 59 b/s
Count of elements                        : 1587
Stream size                              : 45.0 KiB (0%)
Title                                    : Full
Language                                 : English
Default                                  : No
Forced                                   : No

Text #4
ID                                       : 7
Format                                   : UTF-8
Codec ID                                 : S_TEXT/UTF8
Codec ID/Info                            : UTF-8 Plain Text
Duration                                 : 1 h 44 min
Bit rate                                 : 67 b/s
Count of elements                        : 1752
Stream size                              : 51.3 KiB (0%)
Title                                    : SDH
Language                                 : English
Default                                  : No
Forced                                   : No

Text #5
ID                                       : 8
Format                                   : UTF-8
Codec ID                                 : S_TEXT/UTF8
Codec ID/Info                            : UTF-8 Plain Text
Duration                                 : 1 h 45 min
Bit rate                                 : 107 b/s
Count of elements                        : 2109
Stream size                              : 83.0 KiB (0%)
Title                                    : Commentary
Language                                 : English
Default                                  : No
Forced                                   : No

Menu
00:00:00.000                             : :Chapter 01
00:06:27.136                             : :Chapter 02
00:11:09.418                             : :Chapter 03
00:15:51.116                             : :Chapter 04
00:21:00.884                             : :Chapter 05
00:25:53.802                             : :Chapter 06
00:34:35.031                             : :Chapter 07
00:37:46.639                             : :Chapter 08
00:42:01.227                             : :Chapter 09
00:44:44.098                             : :Chapter 10
00:47:39.773                             : :Chapter 11
00:52:04.955                             : :Chapter 12
00:57:06.423                             : :Chapter 13
00:59:59.971                             : :Chapter 14
01:04:39.333                             : :Chapter 15
01:08:09.001                             : :Chapter 16
01:11:17.398                             : :Chapter 17
01:14:29.089                             : :Chapter 18
01:19:45.655                             : :Chapter 19
01:26:09.539                             : :Chapter 20
01:32:11.984                             : :Chapter 21
01:35:52.496                             : :Chapter 22
01:40:05.666                             : :Chapter 23
01:45:06.091                             : :Chapter 24
Світлини




Джерело: &
Особиста оцінка: 0 - не дивився


 Трекер:    Зареєстрований   

Завантажити / скачати фільм українською



відео для новачків



 Зареєстрований:   2019-10-10 21:22
 Розмір:   6.92 GB 
 Оцінка фільму:   9.4/10 (Голосів: 23)
   
Інші релізи
   Толкін / Tolkien (2019) Remux 1080p Ukr/Eng | Sub Ukr/Eng sandman  2 / 0   27.8 GB   2019-10-11 10:38 
   Толкін / Tolkien (2019) 1080p Ukr/Eng | Sub Ukr/Eng staf777  5 / 0   13.73 GB   2019-10-11 09:20 
   Толкін / Tolkien (2019) antik_2008  9 / 0   1.93 GB   2019-10-10 23:58 
   Толкін / Tolkien (2019) AVC Ukr/Eng | Sub Ukr/Eng 11FrYkT  8 / 0   2.09 GB   2019-10-10 22:06 
   Толкін / Tolkien (2019) 720p Ukr/Eng | Sub Ukr/Eng 11FrYkT  8 / 0   4.48 GB   2019-10-10 21:57 
peacemakerua 
Частий відвідувач


З нами з: 24.03.13
Востаннє: 08.12.19
Повідомлень: 27

2019-08-10 15:57  
720 планується?
Anonymous 







2019-08-10 16:06  
peacemakerua, так, буде. Але від іншого релізера.
ValicV 
Свій


З нами з: 18.01.10
Востаннє: 13.12.19
Повідомлень: 134

2019-08-10 19:48  
чи буде реліз ?
neo3703 
Свій


З нами з: 12.05.10
Востаннє: 13.12.19
Повідомлень: 116

2019-08-10 21:57  
Круто, оперативно!
Я якраз збирався зробити у 1080р, випередили)

Anonymous 







2019-08-10 22:35  
neo3703
Так робіть, тут 265 кодек)

Додано через 19 секунд:

ValicV написано:
чи буде реліз ?

Буде, від іншого релізера.

aton_ra 
Новенький


З нами з: 23.03.11
Востаннє: 12.12.19
Повідомлень: 2

2019-08-11 17:30  
+1 за реліз 264!!!
kuzyag 
Новенький


З нами з: 17.03.09
Востаннє: 12.12.19
Повідомлень: 22

2019-08-11 17:55  
Хороший байопік.
Після перегляду фільму залишається приємна теплота.

waldi-hurtom 
VIP


З нами з: 07.10.12
Востаннє: 13.12.19
Повідомлень: 1056

2019-08-21 20:36  
Дуже хотів подивитися про Толкіена. Але таке низкосортне лайно, перепрошую! Про Британію мають знімати британці. Не зміг додивитися. 3 з 10. Можливо, поколінню спайдермена і губки боба стрічка здасться шедевром.
Anonymous 







2019-10-10 21:22  
Укр. доріжка з 
JanusK 
Новенький


З нами з: 15.01.17
Востаннє: 30.11.19
Повідомлень: 16

2019-10-24 21:50  
Як завжди, дякую за реліз у H265!
Ваш часовий пояс: GMT + 2 Години

Нова тема   Відповісти