Беверлі Хіллз 90210 (Сезон 1, серії 1-3) / BH90210 (Season 1, episodes 1-3) (2019)

Нові коментарі

Нова тема   Відповісти
Автор Повідомлення
DniproFilm 
VIP


З нами з: 10.10.18
Востаннє: 23.08.19
Повідомлень: 261

2019-08-09 17:00  
Беверлі Хіллз 90210 (Сезон 1, серії 1-3) / BH90210 (Season 1, episodes 1-3) (2019)

Беверлі Хіллз 90210 (Сезон 1, серії 1-3) / BH90210 (Season 1, episodes 1-3) (2019)


Жанр: драма, мелодрама, комедія
Країна: США



Кінокомпанія / телеканал: CBS Studios, CBS Television Studios
Режисер: Елізабет Ален
Актори/ролі озвучують: Гебріелль Картеріс, Шеннен Доерті, Дженні Гарт, Брайан Остін Грін, Джейсон Прістлі, Торі Спеллінг, Ян Зірінг, Тай Вуд, Крістін Еліз, Наталі Шарп та інші

Сюжет:
Перезавантаження класичної серії від 90-х років. Нові обличчя, ж ті самі проблеми...


Тривалість: 1 серія: ~ 45 хв. (цілком серій: 6)
Перелік серій

1. The Reunion
2. The Pitch
3. The Photo Shoot
4. The Table Read
5. Picture's Up
6. ***
Якість:
Відео:
кодек:
розмір кадру: 720x400
бітрейт: ~1800 кб/с

Аудіо # 1:
мова: українська
переклад: багатоголосий закадровий
кодек: 5.1
бітрейт: 384 кб/с

Джерело озвучення:
DniproFilm
Info

Video
ID : 0
Format : MPEG-4 Visual
Format profile : Advanced [email protected]
Format settings : BVOP2
Format settings, BVOP : 2
Format settings, QPel : No
Format settings, GMC : No warppoints
Format settings, Matrix : Default (H.263)
Muxing mode : Packed bitstream
Codec ID :
Codec ID/Hint :
Duration : 42 min 49 s
Bit rate : 1 777 kb/s
Width : 720 pixels
Height : 400 pixels
Display aspect ratio : 16:9
Frame rate : 23.976 (24000/1001) FPS
Color space : YUV
Chroma subsampling : 4:2:0
Bit depth : 8 bits
Scan type : Progressive
Compression mode : Lossy
Bits/(Pixel*Frame) : 0.257
Stream size : 544 MiB (82%)
Writing library : 67

Audio
ID : 1
Format : AC-3
Format/Info : Audio Coding 3
Commercial name : Dolby Digital
Codec ID : 2000
Duration : 42 min 49 s
Bit rate mode : Constant
Bit rate : 384 kb/s
Channel(s) : 6 channels
Channel positions : Front: L C R, Side: L R, LFE
Sampling rate : 48.0 kHz
Frame rate : 31.250 FPS (1536 SPF)
Bit depth : 16 bits
Compression mode : Lossy
Stream size : 118 MiB (18%)
Alignment : Aligned on interleaves
Interleave, duration : 42 ms (1.00 video frame)
Interleave, preload duratio : 512 ms
Service kind : Complete Main
Скріншоти




Авторський реліз (завантажувати можна без реєстрації)
 Трекер:    Зареєстрований   

Завантажити / скачати серіал українською



відео для новачків



 Зареєстрований:   2019-08-23 16:48
 Розмір:   1.94 GB 
 Оцінка серіалу:   8.2/10 (Голосів: 13)
   
don pedro 
Попереджень: 1
Попереджень: 1 


З нами з: 29.06.11
Востаннє: 24.08.19
Повідомлень: 14240

2019-08-09 17:19  
Краще б "Хлоп'ят" озвучили, а не це казна-що.
HELLOHAOS 
Свій


З нами з: 13.02.09
Востаннє: 23.08.19
Повідомлень: 67

2019-08-09 19:58  
Цитата:
Нові обличчя, ж ті самі проблеми...

Старі обличчя, ж ті самі проблеми...

adel-dream 
Новенький


З нами з: 11.01.17
Востаннє: 23.08.19
Повідомлень: 1

2019-08-10 00:48  
Дякую за переклад Happy
Боялась, що знімуть продовження серіалу, але оригінально викрутились - посміялась та поностальгувала Happy

DniproFilm 
VIP


З нами з: 10.10.18
Востаннє: 23.08.19
Повідомлень: 261

2019-08-23 16:49  
Додано 3 серію.

Ваш часовий пояс: GMT + 2 Години

Нова тема   Відповісти