Беверлі Хіллз 90210 (Сезон 1, серії 1-3) / BH90210 (Season 1, episodes 1-3) (2019) 720p Ukr/Eng

Нові коментарі

Нова тема   Відповісти
Автор Повідомлення
DniproFilm 
VIP


З нами з: 10.10.18
Востаннє: 23.08.19
Повідомлень: 261

2019-08-09 17:00  
Беверлі Хіллз 90210 (Сезон 1, серії 1-3) / BH90210 (Season 1, episodes 1-3) (2019) 720p Ukr/Eng

Беверлі Хіллз 90210 (Сезон 1, серії 1-3) / BH90210 (Season 1, episodes 1-3) (2019) 720p Ukr/Eng


Жанр: драма, мелодрама, комедія
Країна: США



Кінокомпанія / телеканал: CBS Studios, CBS Television Studios
Режисер: Елізабет Ален
Актори/ролі озвучують: Гебріелль Картеріс, Шеннен Доерті, Дженні Гарт, Брайан Остін Грін, Джейсон Прістлі, Торі Спеллінг, Ян Зірінг, Тай Вуд, Крістін Еліз, Наталі Шарп та інші

Сюжет:
Перезавантаження класичної серії від 90-х років. Нові обличчя, ті ж самі проблеми...


Тривалість: 1 серія: ~ 45 хв. (цілком серій: 6)
Перелік серій

1. The Reunion
2. The Pitch
3. The Photo Shoot
4. The Table Read
5. Picture's Up
6. ***
Якість:
Відео:
кодек:
розмір кадру: 1280x720
бітрейт: ~4000 кб/с

Аудіо # 1:
мова: українська
переклад: багатоголосий закадровий
кодек: 5.1
бітрейт: 384 кб/с

Аудіо # 2:
мова: англійська
переклад: оригінал
кодек: 5.1
бітрейт: 640 кб/с

Джерело озвучення:
DniproFilm
Info

Video
ID : 1
Format : AVC
Format/Info : Advanced Video Codec
Format profile : [email protected]
Format settings : CABAC / 4 Ref Frames
Format settings, CABAC : Yes
Format settings, ReFrames : 4 frames
Codec ID : V_MPEG4/ISO/AVC
Duration : 42 min 49 s
Bit rate : 3 932 kb/s
Width : 1 280 pixels
Height : 720 pixels
Display aspect ratio : 16:9
Frame rate mode : Constant
Frame rate : 23.976 (24000/1001) FPS
Color space : YUV
Chroma subsampling : 4:2:0
Bit depth : 8 bits
Scan type : Progressive
Bits/(Pixel*Frame) : 0.178
Stream size : 1.18 GiB (79%)
Language : English
Default : Yes
Forced : No
Color range : Limited
Color primaries : BT.709
Transfer characteristics : BT.709
Matrix coefficients : BT.709

Audio #1
ID : 2
Format : AC-3
Format/Info : Audio Coding 3
Commercial name : Dolby Digital
Codec ID : A_AC3
Duration : 42 min 49 s
Bit rate mode : Constant
Bit rate : 384 kb/s
Channel(s) : 6 channels
Channel positions : Front: L C R, Side: L R, LFE
Sampling rate : 48.0 kHz
Frame rate : 31.250 FPS (1536 SPF)
Bit depth : 16 bits
Compression mode : Lossy
Stream size : 118 MiB (8%)
Title : DniproFilm
Language : Ukrainian
Service kind : Complete Main
Default : Yes
Forced : No

Audio #2
ID : 3
Format : AC-3
Format/Info : Audio Coding 3
Commercial name : Dolby Digital
Codec ID : A_AC3
Duration : 42 min 49 s
Bit rate mode : Constant
Bit rate : 640 kb/s
Channel(s) : 6 channels
Channel positions : Front: L C R, Side: L R, LFE
Sampling rate : 48.0 kHz
Frame rate : 31.250 FPS (1536 SPF)
Bit depth : 16 bits
Compression mode : Lossy
Stream size : 196 MiB (13%)
Language : English
Service kind : Complete Main
Default : No
Forced : No
Скріншоти




Авторський реліз (завантажувати можна без реєстрації)
 Трекер:    Зареєстрований   

Завантажити / скачати серіал українською



відео для новачків



 Зареєстрований:   2019-08-23 16:48
 Розмір:   4.43 GB 
 Оцінка серіалу:   9.1/10 (Голосів: 9)
   
DniproFilm 
VIP


З нами з: 10.10.18
Востаннє: 23.08.19
Повідомлень: 261

2019-08-23 16:49  
Увага! Додано 3 серію.

Ваш часовий пояс: GMT + 2 Години

Нова тема   Відповісти