Беверлі Хіллз 90210 (Сезон 1, серії 1-2) / BH90210 (Season 1, episodes 1-2) (2019) 1080p Ukr/Eng

Нові коментарі

Нова тема   Відповісти
Автор Повідомлення
DniproFilm 
VIP


З нами з: 10.10.18
Востаннє: 17.08.19
Повідомлень: 258

2019-08-09 16:59  
Беверлі Хіллз 90210 (Сезон 1, серії 1-2) / BH90210 (Season 1, episodes 1-2) (2019) 1080p Ukr/Eng

Беверлі Хіллз 90210 (Сезон 1, серії 1-2) / BH90210 (Season 1, episodes 1-2) (2019) 1080p Ukr/Eng


Жанр: драма, мелодрама, комедія
Країна: США


Кінокомпанія / телеканал: CBS Studios, CBS Television Studios

Режисер: Елізабет Ален
Актори/ролі озвучують: Гебріелль Картеріс, Шеннен Доерті, Дженні Гарт, Брайан Остін Грін, Джейсон Прістлі, Торі Спеллінг, Ян Зірінг, Тай Вуд, Крістін Еліз, Наталі Шарп та інші

Сюжет:
Перезавантаження класичної серії від 90-х років. Нові обличчя, ті ж самі проблеми...


Тривалість: 1 серія: ~ 45 хв. (цілком серій: 6)
Перелік серій

1. The Reunion
2. The Pitch
3. The Photo Shoot
4. ***
5. ***
6. ***
Якість:
Відео:
кодек:
розмір кадру: 1920x1080
бітрейт: ~7000 кб/с

Аудіо # 1:
мова: українська
переклад: багатоголосий закадровий
кодек: 5.1
бітрейт: 384 кб/с

Аудіо # 2:
мова: англійська
переклад: оригінал
кодек: 5.1
бітрейт: 640 кб/с

Джерело озвучення:
DniproFilm
Info

Video
ID : 1
Format : AVC
Format/Info : Advanced Video Codec
Format profile : [email protected]
Format settings : CABAC / 4 Ref Frames
Format settings, CABAC : Yes
Format settings, ReFrames : 4 frames
Codec ID : V_MPEG4/ISO/AVC
Duration : 42 min 49 s
Bit rate : 6 880 kb/s
Width : 1 920 pixels
Height : 1 080 pixels
Display aspect ratio : 16:9
Frame rate mode : Constant
Frame rate : 23.976 (24000/1001) FPS
Color space : YUV
Chroma subsampling : 4:2:0
Bit depth : 8 bits
Scan type : Progressive
Bits/(Pixel*Frame) : 0.138
Stream size : 2.06 GiB (87%)
Language : English
Default : Yes
Forced : No
Color range : Limited
Color primaries : BT.709
Transfer characteristics : BT.709
Matrix coefficients : BT.709

Audio #1
ID : 2
Format : AC-3
Format/Info : Audio Coding 3
Commercial name : Dolby Digital
Codec ID : A_AC3
Duration : 42 min 49 s
Bit rate mode : Constant
Bit rate : 384 kb/s
Channel(s) : 6 channels
Channel positions : Front: L C R, Side: L R, LFE
Sampling rate : 48.0 kHz
Frame rate : 31.250 FPS (1536 SPF)
Bit depth : 16 bits
Compression mode : Lossy
Stream size : 118 MiB (5%)
Title : DniproFilm
Language : Ukrainian
Service kind : Complete Main
Default : Yes
Forced : No

Audio #2
ID : 3
Format : AC-3
Format/Info : Audio Coding 3
Commercial name : Dolby Digital
Codec ID : A_AC3
Duration : 42 min 49 s
Bit rate mode : Constant
Bit rate : 640 kb/s
Channel(s) : 6 channels
Channel positions : Front: L C R, Side: L R, LFE
Sampling rate : 48.0 kHz
Frame rate : 31.250 FPS (1536 SPF)
Bit depth : 16 bits
Compression mode : Lossy
Stream size : 196 MiB (8%)
Language : English
Service kind : Complete Main
Default : No
Forced : No
Скріншоти




Авторський реліз (завантажувати можна без реєстрації)
 Трекер:    Зареєстрований   

Завантажити / скачати серіал українською



відео для новачків



 Зареєстрований:   2019-08-17 03:55
 Розмір:   4.67 GB 
 Оцінка серіалу:   8.6/10 (Голосів: 5)
   
Влад Гук 
Частий відвідувач


З нами з: 06.07.13
Востаннє: 21.08.19
Повідомлень: 41

2019-08-09 18:24  
Дякую!
oggy_xxl 
Новенький


З нами з: 10.06.17
Востаннє: 10.08.19
Повідомлень: 1

2019-08-10 21:50  
ураааа! нарешті
-Star-Lord- 
VIP


З нами з: 09.08.18
Востаннє: 20.08.19
Повідомлень: 1031

2019-08-11 23:37  
Молодці, що без реклами! Дякую!
Tatko4e 
Новенький


З нами з: 10.12.16
Востаннє: 19.08.19
Повідомлень: 13

2019-08-16 09:28  
Бімбезно.Свіженький погляд на класичну історію.Мені сподобалося!
А як виходитимуть серії?

DniproFilm 
VIP


З нами з: 10.10.18
Востаннє: 17.08.19
Повідомлень: 258

2019-08-17 03:57  
Додано 2 серію.

olimpian1 
Поважний учасник


З нами з: 19.10.13
Востаннє: 17.08.19
Повідомлень: 178

2019-08-17 10:50  
Класно зробили! Ностальгія, бляха...))
Ваш часовий пояс: GMT + 2 Години

Нова тема   Відповісти