Доктор Хто / Doctor Who (1996) 720p Eng | Sub Ukr/Eng

Нові коментарі

Нова тема   Відповісти
Автор Повідомлення
Anonymous 







2019-08-09 12:38  
Доктор Хто / Doctor Who (1996) 720p Eng | Sub Ukr/Eng



Жанр: драма, пригодницький, наукова фантастика
Країна: США, Канада, Велика Британія



Кінокомпанія: 20th Century Fox Television, BBC Worldwide
Режисер: Джеффрі Сакс
Актори: Пол Макґанн, Ерік Робертс, Дафна Ешбрук, Сільвестр МакКой, Йі Джі Цо

Сюжет:
Доктор Хто - легендарний міжгалактичний герой, відомий шукач пригод і мандрівник крізь простір та час. У тих далеких світах, звідки він прибув, перед ним схиляються і називають його Повелителем часу. Його місія - врятувати людську расу від іншопланетян, які готуються до захоплення Землі і знищення людей ... У цій серії він вкотре битиметься зі своїм заклятим ворогом - Майстром ...


Тривалість: 01:25:48
Якість:
Відео:
кодек:
розмір кадру: 944 х 720
бітрейт: 5784 кб/с

Аудіо:
мова: англійська
переклад: оригінал
кодек: 2.0
бітрейт: 384 кб/с

Субтитри:
мова: українська
тип: програмні (м'які)
формат: *.srt
переклад: з російської, Seriy100293

Субтитри:
мова: англійська
тип: програмні (м'які)
формат: *.srt
Info
Format :
Format version : Version 4
File size : 3.70 GiB
Duration : 1 h 25 min
Overall bit rate : 6 170 kb/s
Encoded date : UTC 2019-08-09 09:56:35
Writing application : v27.0.0 ('Metropolis') 64-bit
Writing library : libebml v1.3.6 + v1.4.9

Video
ID : 1
Format : AVC
Format/Info : Advanced Video Codec
Format profile : [email protected]
Format settings : CABAC / 5 Ref Frames
Format settings, CABAC : Yes
Format settings, ReFrames : 5 frames
Codec ID : V_MPEG4/ISO/AVC
Duration : 1 h 25 min
Bit rate : 5 784 kb/s
Width : 944 pixels
Height : 720 pixels
Display aspect ratio : 4:3
Frame rate mode : Constant
Frame rate : 25.000 FPS
Color space : YUV
Chroma subsampling : 4:2:0
Bit depth : 8 bits
Scan type : Progressive
Bits/(Pixel*Frame) : 0.340
Stream size : 3.47 GiB (94%)
Writing library : core 148 r2705 3f5ed56
Encoding settings : cabac=1 / ref=5 / deblock=1:-3:-3 / analyse=0x3:0x133 / me=umh / subme=8 / psy=1 / psy_rd=1.00:0.00 / mixed_ref=1 / me_range=16 / chroma_me=1 / trellis=1 / 8x8dct=1 / cqm=0 / deadzone=21,11 / fast_pskip=0 / chroma_qp_offset=-2 / threads=6 / lookahead_threads=1 / sliced_threads=0 / nr=0 / decimate=1 / interlaced=0 / bluray_compat=0 / constrained_intra=0 / bframes=3 / b_pyramid=2 / b_adapt=2 / b_bias=0 / direct=3 / weightb=1 / open_gop=0 / weightp=2 / keyint=250 / keyint_min=25 / scenecut=40 / intra_refresh=0 / rc_lookahead=50 / rc=2pass / mbtree=1 / bitrate=5784 / ratetol=1.0 / qcomp=0.60 / qpmin=0 / qpmax=69 / qpstep=4 / cplxblur=20.0 / qblur=0.5 / vbv_maxrate=62500 / vbv_bufsize=78125 / nal_hrd=none / filler=0 / ip_ratio=1.40 / aq=1:1.00
Language : English
Default : Yes
Forced : No

Audio
ID : 2
Format : AC-3
Format/Info : Audio Coding 3
Commercial name : Dolby Digital
Codec ID : A_AC3
Duration : 1 h 25 min
Bit rate mode : Constant
Bit rate : 384 kb/s
Channel(s) : 2 channels
Channel layout : L R
Sampling rate : 48.0 kHz
Frame rate : 31.250 FPS (1536 SPF)
Bit depth : 16 bits
Compression mode : Lossy
Stream size : 236 MiB (6%)
Language : English
Service kind : Complete Main
Default : Yes
Forced : No

Text #1
ID : 3
Format : UTF-8
Codec ID : S_TEXT/UTF8
Codec ID/Info : UTF-8 Plain Text
Duration : 1 h 24 min
Bit rate : 74 b/s
Count of elements : 770
Stream size : 46.2 KiB (0%)
Language : Ukrainian
Default : Yes
Forced : No

Text #2
ID : 4
Format : UTF-8
Codec ID : S_TEXT/UTF8
Codec ID/Info : UTF-8 Plain Text
Duration : 1 h 24 min
Bit rate : 49 b/s
Count of elements : 968
Stream size : 30.9 KiB (0%)
Language : English
Default : No
Forced : No

Menu
00:00:00.000 : en:00:00:00.000
00:05:11.800 : en:00:05:11.800
00:07:18.200 : en:00:07:18.200
00:08:48.680 : en:00:08:48.680
00:11:36.720 : en:00:11:36.720
00:18:00.400 : en:00:18:00.400
00:20:57.960 : en:00:20:57.960
00:25:35.400 : en:00:25:35.400
00:29:45.000 : en:00:29:45.000
00:34:03.320 : en:00:34:03.320
00:36:53.000 : en:00:36:53.000
00:40:55.960 : en:00:40:55.960
00:47:31.440 : en:00:47:31.440
00:50:57.440 : en:00:50:57.440
00:56:26.160 : en:00:56:26.160
01:02:13.120 : en:01:02:13.120
01:06:35.440 : en:01:06:35.440
01:07:42.960 : en:01:07:42.960
01:09:01.800 : en:01:09:01.800
01:12:45.080 : en:01:12:45.080
01:17:23.160 : en:01:17:23.160
01:20:31.560 : en:01:20:31.560
01:21:43.720 : en:01:21:43.720
01:25:02.800 : en:01:25:02.800
Скріншоти






Подяка: за постер п. zgryvus та п. Seriy100293 за переклад субтитрів.
Джерело:
Особиста оцінка: 7 - моїй подрузі не сподобалося



Срібний реліз (на рейтинг впливає 50% завантаженого)
 Трекер:    Зареєстрований   

Завантажити / скачати фільм українською



відео для новачків



 Зареєстрований:   2019-08-09 12:38
 Розмір:   3.7 GB 
 Оцінка фільму:   10/10 (Голосів: 5)
   
Інші релізи
   Доктор Хто / Doctor Who (1996) Eng | sub Ukr Seriy100293  2 / 0   1.22 GB   2012-09-01 18:05 
eXteSy- 
VIP


З нами з: 06.04.09
Востаннє: 04.12.20
Повідомлень: 2220

2019-08-10 00:53  
Anonymous написано:
сай - фай

Невже є такий жанр?))
"сай-фай"=недолугий недопереклад sci-fi=science fiction=наукова фантастика.

bot 
робот


З нами з: 30.09.07
Востаннє: 26.05.05
Повідомлень: 26460

2019-09-09 21:17  
Тему перенесено з Фільми до форуму Фільми


leicheman

igor911 
Модератор відео


З нами з: 18.01.08
Востаннє: 04.12.20
Повідомлень: 15090

2019-11-19 21:29  
Anonymous написано:
Doctor Who / Доктор Хто (1996)

-треба поміняти назви місцями, як усталено на Толоці (укр / ориг.),
- замінити постер (мініатюра до 200 кб, макс.400)
Anonymous написано:
сай - фай

виправити на 'наукова фантастика'
Anonymous написано:
Великобританія

Велика Британія

Ваш часовий пояс: GMT + 2 Години

Нова тема   Відповісти